<?xml version="1.0" standalone="no"?>
<!DOCTYPE svg PUBLIC "-//W3C//DTD SVG 1.1//EN" "http://www.w3.org/Graphics/SVG/1.1/DTD/svg11.dtd" >
<svg xmlns="http://www.w3.org/2000/svg">
<defs>
  <font id="NucleoMLN" horiz-adv-x="256">
    <font-face font-family="NucleoMLN"
      units-per-em="256" ascent="256"
      descent="0" />
    <missing-glyph horiz-adv-x="0" />
    <glyph glyph-name="saint-basil-cathedral"
      unicode="&#xEA02;"
      horiz-adv-x="256" d="M152.896 176A31.856 31.856 0 0 1 160 196C160 216 136 224 136 240V248A8 8 0 0 1 120 248V240C120 224 96 216 96 196A31.856 31.856 0 0 1 103.104 176zM224 168V176A8 8 0 0 1 208 176V168C208 152 176 136 176 112A39.672 39.672 0 0 1 184.168 88H247.832A39.672 39.672 0 0 1 256 112C256 136 224 152 224 168zM48 168V176A8 8 0 0 1 32 176V168C32 152 0 136 0 112A39.672 39.672 0 0 1 8.168 88H71.832A39.672 39.672 0 0 1 80 112C80 136 48 152 48 168zM72 72V0H16A8 8 0 0 0 8 8V72zM248 72V8A8 8 0 0 0 240 0H184V72zM88 72V0H112V24A16 16 0 0 0 144 24V0H168V72zM161.664 128L147.64 160L108.36 160L94.336 128L161.664 128zM96 112A54.864 54.864 0 0 0 90.208 88H165.792A54.864 54.864 0 0 0 160 112z" />
    <glyph glyph-name="farmer-market"
      unicode="&#xEA03;"
      horiz-adv-x="256" d="M72 0C58.768 0 48 10.768 48 24S58.768 48 72 48S96 37.232 96 24S85.232 0 72 0zM240 96H16C11.584 96 8 92.424 8 88V32C8 27.576 11.584 24 16 24H32C32 46.056 49.944 64 72 64S112 46.056 112 24H232V8C232 3.576 235.584 0 240 0S248 3.576 248 8V88C248 92.424 244.416 96 240 96zM112 160H72C67.584 160 64 156.416 64 152V112H120V152C120 156.416 116.416 160 112 160zM184 160H144C139.584 160 136 156.416 136 152V112H192V152C192 156.416 188.416 160 184 160zM254.912 196.032L226.912 244.032C225.48 246.496 222.848 248 220 248H36C33.16 248 30.52 246.496 29.088 244.032L1.088 196.032C-0.36 193.552 -0.368 190.504 1.064 188.016S5.136 184 8 184H24V112H40V184H216V112H232V184H248C250.864 184 253.512 185.528 254.936 188.016S256.3520000000001 193.552 254.912 196.032z" />
    <glyph glyph-name="grain-2"
      unicode="&#xEA04;"
      horiz-adv-x="256" d="M116 0C109.384 0 104 5.384 104 12S109.384 24 116 24S128 18.616 128 12S122.616 0 116 0zM116 12H116S116 12 116 12zM76 56C69.384 56 64 61.384 64 68S69.384 80 76 80S88 74.616 88 68S82.616 56 76 56zM76 68H76S76 68 76 68zM196 0C189.384 0 184 5.384 184 12S189.384 24 196 24S208 18.616 208 12S202.616 0 196 0zM196 12H196S196 12 196 12zM156 56C149.384 56 144 61.384 144 68S149.384 80 156 80S168 74.616 168 68S162.616 56 156 56zM156 68H156S156 68 156 68zM148 176H240C248.84 176 256 183.16 256 192S248.84 208 240 208H148C145.792 208 144 209.792 144 212S145.792 216 148 216H216C224.84 216 232 223.16 232 232S224.84 248 216 248H144S144 248 144 248C144 247.984 144 247.976 144 247.96V248C144 225.944 126.056 208 104 208H83.312C77.328 193.224 65.968 181.088 51.432 174.168C50.328 173.648 49.152 173.392 48 173.392C45.008 173.392 42.144 175.072 40.768 177.952C38.872 181.944 40.568 186.72 44.56 188.616C56.84 194.448 66.104 205.264 69.976 218.272C70.984 221.664 74.104 223.992 77.64 223.992H103.992C117.224 223.992 127.992 234.76 127.992 247.992V248.008C127.984 252.424 124.408 255.992 119.992 255.992H56C36.336 256 17.392 248.728 2.664 235.504C0.976 233.992 0 231.824 0 229.552V114.832C0 111.984 1.512 109.344 3.976 107.92C17.368 100.12 32.6 96 48 96H208C216.84 96 224 103.16 224 112S216.84 128 208 128H140C137.792 128 136 129.792 136 132S137.792 136 140 136H232C240.84 136 248 143.16 248 152S240.84 168 232 168H148C145.792 168 144 169.792 144 172S145.792 176 148 176zM96 128C89.384 128 84 133.384 84 140S89.384 152 96 152S108 146.616 108 140S102.616 128 96 128z" />
    <glyph glyph-name="watering-plants"
      unicode="&#xEA05;"
      horiz-adv-x="256" d="M224 136H176C152.728 136 132.056 124.848 118.88 107.664C113.376 137.392 87.296 160 56 160H24C19.584 160 16 156.424 16 152C16 112.296 48.304 80 88 80H104V8C104 3.576 107.584 0 112 0S120 3.576 120 8V48C120 78.872 145.12 104 176 104C180.416 104 184 100.424 184 96S180.416 88 176 88C153.944 88 136 70.056 136 48V32C188.936 32 232 75.064 232 128C232 132.424 228.416 136 224 136zM176 168C158.352 168 144 182.352 144 200C144 227 169.264 252.576 170.344 253.656C173.472 256.784 178.528 256.784 181.656 253.656C182.736 252.576 208 227 208 200C208 182.352 193.648 168 176 168zM80 184C66.768 184 56 194.768 56 208C56 223.296 72.728 238.864 74.632 240.592C77.68 243.36 82.32 243.36 85.368 240.592C87.272 238.864 104 223.296 104 208C104 194.768 93.232 184 80 184z" />
    <glyph glyph-name="scarecrow"
      unicode="&#xEA06;"
      horiz-adv-x="256" d="M248 152H224V160C224 164.424 220.416 168 216 168H167.12C165.032 168 163.016 167.176 161.528 165.72C152.488 156.88 140.576 152 128.008 152S103.528 156.872 94.488 165.72C92.992 167.184 90.984 168 88.896 168H40C35.584 168 32 164.424 32 160V152H8C3.584 152 0 148.424 0 144S3.584 136 8 136H32V128C32 123.576 35.584 120 40 120H78.416L64.128 41.432C63.704 39.096 64.336 36.696 65.856 34.88S69.624 32.008 72 32.008H120V8.008C120 3.584 123.584 0.008 128 0.008S136 3.584 136 8.008V32.008H184C186.368 32.008 188.624 33.0640000000001 190.144 34.8800000000001S192.304 39.0960000000001 191.872 41.432L177.584 120.0000000000001H216C220.416 120.0000000000001 224 123.5760000000001 224 128.0000000000001V136.0000000000001H248C252.416 136.0000000000001 256 139.5760000000001 256 144.0000000000001S252.416 152.0000000000001 248 152.0000000000001zM80 208H96V200C96 182.328 110.328 168 128 168S160 182.328 160 200V208H176C180.416 208 184 211.576 184 216S180.416 224 176 224H159.064L155.936 248.992C155.44 252.992 152.032 256 148 256H108C103.968 256 100.56 252.992 100.064 248.992L96.936 224H80C75.584 224 72 220.424 72 216S75.584 208 80 208z" />
    <glyph glyph-name="farmer"
      unicode="&#xEA07;"
      horiz-adv-x="256" d="M80 72H112C120.824 72 128 79.176 128 88V120H64V88C64 79.176 71.176 72 80 72zM248 208C243.584 208 240 204.424 240 200V160C240 151.176 232.824 144 224 144V200C224 204.424 220.416 208 216 208S208 204.424 208 200V144C199.176 144 192 151.176 192 160V200C192 204.424 188.416 208 184 208S176 204.424 176 200V160C176 142.352 190.352 128 208 128H224C241.648 128 256 142.352 256 160V200C256 204.424 252.416 208 248 208zM224 112V8C224 3.576 220.416 0 216 0S208 3.576 208 8V112H224zM152 208H144V224C144 241.648 129.648 256 112 256H80C62.352 256 48 241.648 48 224V208H40C35.584 208 32 204.424 32 200S35.584 192 40 192H48.336C50.936 158.656 69.792 136 96 136S141.064 158.656 143.664 192H152C156.416 192 160 195.576 160 200S156.416 208 152 208zM96 152C79 152 66.664 168.104 64.408 192H127.6C125.344 168.104 113.008 152 96.008 152zM144 119.36V88C144 70.352 129.648 56 112 56H80C62.352 56 48 70.352 48 88V119.36C20.904 115.456 0 92.152 0 64V8C0 3.576 3.584 0 8 0H32V40C32 44.424 35.584 48 40 48S48 44.424 48 40V0H144V40C144 44.424 147.584 48 152 48S160 44.424 160 40V0H184C188.416 0 192 3.576 192 8V64C192 92.152 171.096 115.456 144 119.36z" />
    <glyph glyph-name="farm-2"
      unicode="&#xEA08;"
      horiz-adv-x="256" d="M57.72 255.976C84.104 255.184 105.24 235.24 110.624 210.152L85.272 197.48C80.192 194.936 76.168 190.656 73.936 185.448L69.888 176H0S0 200 0 200C0 231.504 26.008 256.928 57.72 255.976zM63.032 160L49.936 129.448C48.648 126.456 48 123.28 48 120V72S0 72 0 72V160S63.032 160 63.032 160zM48 56V8C48 5.184 48.576 2.512 49.472 0H8C3.584 0 0 3.584 0 8V56S48 56 48 56zM136 136C136 149.232 146.768 160 160 160S184 149.232 184 136V120H256C256 121.08 255.784 122.144 255.352 123.136L231.344 179.144C230.6 180.888 229.256 182.312 227.56 183.16L163.568 215.152C161.312 216.28 158.664 216.28 156.408 215.152L92.416 183.16C90.72 182.312 89.376 180.888 88.632 179.144L64.632 123.136C64.208 122.144 63.984 121.08 63.984 120H135.984V136zM64 8C64 3.584 67.584 0 72 0H112C116.416 0 120 3.584 120 8V64C120 68.416 123.584 72 128 72H192C196.416 72 200 68.416 200 64V8C200 3.584 203.584 0 208 0H248C252.416 0 256 3.584 256 8V104H64V8z" />
    <glyph glyph-name="fruit-picking"
      unicode="&#xEA09;"
      horiz-adv-x="256" d="M0 37.336L32 80L53.472 137.264C55.136 141.696 57.76 145.712 61.16 149.008L100.68 187.312C106.928 193.56 117.056 193.56 123.304 187.312S129.552 170.936 123.304 164.688L87.992 128L77.696 86.544C75.848 79.112 84.488 73.584 90.464 78.376L118.968 101.216C125.2 105.48 133.776 104.848 139.304 99.312C145.552 93.064 145.552 82.936 139.304 76.688L100.752 36.912C97.584 33.648 94.08 30.728 90.296 28.208L47.992 0H8C3.584 0 0 3.584 0 8V37.336zM237.92 195.032C233.504 212.512 226.784 226.16 213.384 230.448C215.872 236.064 221.472 240 228 240H232C236.416 240 240 243.576 240 248S236.416 256 232 256H228C212.856 256 200.2 245.392 196.896 231.24C181.872 227.872 174.744 213.52 170.072 195.032C164.416 172.656 151.992 168 151.992 144S172.888 104 203.992 104S255.992 120 255.992 144S243.576 172.648 237.9120000000001 195.032z" />
    <glyph glyph-name="farm-rows"
      unicode="&#xEA0A;"
      horiz-adv-x="256" d="M181.648 112C183.16 117.072 184 122.44 184 128C184 158.928 158.928 184 128 184S72 158.928 72 128C72 122.44 72.84 117.072 74.352 112H181.656zM128 200.016C123.584 200.016 120 203.592 120 208.016V240.008C120 244.432 123.584 248.008 128 248.008S136 244.432 136 240.008V208.016C136 203.592 132.416 200.016 128 200.016zM88 189.296C85.232 189.296 82.544 190.728 81.064 193.296L65.064 221C62.856 224.832 64.168 229.72 67.992 231.928C71.808 234.136 76.704 232.832 78.92 229L94.92 201.296C97.128 197.464 95.816 192.576 91.992 190.368C90.736 189.64 89.352 189.296 88 189.296zM58.696 160.008C57.344 160.008 55.96 160.352 54.704 161.08L26.992 177.08C23.16 179.288 21.856 184.184 24.064 188.008C26.272 191.84 31.168 193.16 34.992 190.936L62.704 174.936C66.536 172.728 67.84 167.832 65.632 164.008C64.144 161.44 61.464 160.008 58.696 160.008zM47.992 120H15.992C11.576 120 7.992 123.576 7.992 128S11.576 136 15.992 136H47.992C52.408 136 55.992 132.424 55.992 128S52.408 120 47.992 120zM240.008 120H208.008C203.592 120 200.008 123.576 200.008 128S203.592 136 208.008 136H240.008C244.424 136 248.008 132.424 248.008 128S244.424 120 240.008 120zM197.304 160.008C194.536 160.008 191.848 161.44 190.368 164.008C188.16 167.84 189.472 172.728 193.296 174.936L221.008 190.936C224.832 193.152 229.72 191.84 231.936 188.008C234.144 184.176 232.832 179.288 229.008 177.08L201.296 161.08C200.04 160.352 198.656 160.008 197.304 160.008zM168 189.296C166.648 189.296 165.264 189.64 164.008 190.368C160.176 192.576 158.872 197.472 161.08 201.296L177.08 229C179.288 232.832 184.184 234.144 188.008 231.928S193.144 224.824 190.936 221L174.936 193.296C173.448 190.728 170.768 189.296 168 189.296zM248 96.024H8C3.584 96.024 0 92.448 0 88.024S3.584 80.024 8 80.024H69.736L11.552 13.256C7.04 8.08 10.72 0 17.584 0H50.216L84.896 80.024H102.328L67.648 0H120V80.024H136V0H188.352L153.672 80.024H171.104L205.784 0H238.416C245.28 0 248.96 8.08 244.448 13.256L186.264 80.024H248C252.416 80.024 256 83.6 256 88.024S252.416 96.024 248 96.024z" />
    <glyph glyph-name="fertilizer"
      unicode="&#xEA0B;"
      horiz-adv-x="256" d="M232 136V160C232 164.424 228.416 168 224 168H32C27.584 168 24 164.424 24 160V136C24 131.576 27.584 128 32 128H39.952C34.752 112.496 32 96.416 32 80C32 67.552 33.528 55.168 36.552 43.104C28.424 33.16 24 20.864 24 8C24 3.576 27.584 0 32 0H224C228.416 0 232 3.576 232 8C232 20.856 227.576 33.16 219.448 43.104C222.472 55.168 224 67.56 224 80C224 96.416 221.248 112.496 216.048 128H224C228.416 128 232 131.576 232 136zM168 240C164.296 240 160.568 239.536 156.856 238.616C147.784 249.6 134.4 256 120 256C99.256 256 81.4 242.904 74.816 223.864C56.208 225.624 40 210.584 40 192C40 189.272 40.48 186.608 41.168 184H215.264C215.712 186.64 216 189.304 216 192C216 218.472 194.472 240 168 240zM116 208C109.376 208 104 213.376 104 220S109.376 232 116 232S128 226.624 128 220S122.624 208 116 208zM168 200C163.584 200 160 203.584 160 208S163.584 216 168 216S176 212.416 176 208S172.416 200 168 200z" />
    <glyph glyph-name="fruit-crate"
      unicode="&#xEA0C;"
      horiz-adv-x="256" d="M138.656 218.056C126.72 225.208 111.88 225.88 96 220.256V228.008C96 234.624 101.384 240.008 108 240.008H112C116.416 240.008 120 243.584 120 248.008S116.416 256.008 112 256.008H108C92.56 256.008 80 243.448 80 228.008V220.256C64.112 225.888 49.272 225.216 37.344 218.064C23.784 209.936 16 194.608 16 176.008C16 164 17.968 153.368 21.312 144.008H116.816L117.696 145.944C127.648 167.824 138.6 189.28 149.504 208.432C146.464 212.24 142.88 215.536 138.656 218.064zM254.856 228.12C252.576 231.904 247.664 233.136 243.88 230.864L221.6 217.496C221.04 217.856 220.576 218.312 219.992 218.64C219.76 218.776 219.496 218.84 219.264 218.968L223.88 246.68C224.608 251.032 221.664 255.16 217.304 255.88C212.944 256.632 208.824 253.656 208.096 249.304L203.832 223.72C199.128 224.176 194.336 223.896 189.632 222.624C179.312 219.856 170.688 213.24 165.344 203.992C154.808 185.752 144.2 165.08 134.44 143.992H222.528C226.784 150.808 230.888 157.536 234.616 163.992C239.96 173.24 241.384 184.024 238.616 194.344C237.496 198.528 235.592 202.328 233.288 205.848L252.096 217.136C255.888 219.408 257.112 224.32 254.84 228.112zM236 128H20C8.952 128 0 119.048 0 108V20C0 8.952 8.952 0 20 0H236C247.048 0 256 8.952 256 20V108C256 119.048 247.048 128 236 128zM160 80H96C91.584 80 88 83.576 88 88S91.584 96 96 96H160C164.416 96 168 92.424 168 88S164.416 80 160 80z" />
    <glyph glyph-name="forklift"
      unicode="&#xEA0D;"
      horiz-adv-x="256" d="M248 24H192C187.584 24 184 27.576 184 32V224C184 228.424 187.584 232 192 232S200 228.424 200 224V40H248C252.416 40 256 36.424 256 32S252.416 24 248 24zM24 24C10.768 24 0 34.768 0 48S10.768 72 24 72S48 61.232 48 48S37.232 24 24 24zM24 56C19.592 56 16 52.416 16 48S19.592 40 24 40S32 43.584 32 48S28.408 56 24 56zM144 24C130.768 24 120 34.768 120 48S130.768 72 144 72S168 61.232 168 48S157.232 24 144 24zM144 56C139.592 56 136 52.416 136 48S139.592 40 144 40S152 43.584 152 48S148.408 56 144 56zM167.752 129.24C167.704 129.528 167.8 129.816 167.72 130.104L143.72 218.104C142.768 221.592 139.608 224 136 224H80C75.584 224 72 220.424 72 216V136H40C22.328 136 8 121.672 8 104V84.624C15.416 87.872 23.944 89.016 32.944 86.992C47.96 83.616 60.008 71.36 63.136 56.288C64.312 50.632 64.232 45.136 63.192 40H104.808C103.504 46.432 103.704 53.416 105.992 60.6C109.896 72.832 119.896 82.616 132.208 86.256C145.824 90.28 158.48 87.016 168 79.816V128C168 128.44 167.816 128.816 167.752 129.24zM88 156V208H129.888L149.528 136H108C96.952 136 88 144.952 88 156z" />
    <glyph glyph-name="width"
      unicode="&#xEA0E;"
      horiz-adv-x="256" d="M253.656 101.656L221.656 133.656C219.36 135.944 215.92 136.64 212.936 135.392C209.944 134.16 208 131.232 208 128V104H96C91.584 104 88 100.416 88 96S91.584 88 96 88H208V64C208 60.768 209.952 57.84 212.936 56.608C213.928 56.192 214.968 56 216 56C218.08 56 220.128 56.816 221.656 58.344L253.656 90.344C256.784 93.472 256.784 98.528 253.656 101.656zM0 8C0 5.952 0.784 3.904 2.344 2.344C5.472 -0.784 10.528 -0.784 13.656 2.344L101.656 90.344C103.16 91.848 104 93.88 104 96V248C104 252.424 100.424 256 96 256S88 252.424 88 248V99.312L2.344 13.656C0.784 12.096 0 10.048 0 8z" />
    <glyph glyph-name="pallet-stacked-boxes"
      unicode="&#xEA0F;"
      horiz-adv-x="256" d="M0 48H48V32C48 27.584 44.416 24 40 24H8C3.584 24 0 27.584 0 32V48H0zM208 48H256V32C256 27.584 252.416 24 248 24H216C211.584 24 208 27.584 208 32V48H208zM104 48H152V32C152 27.584 148.416 24 144 24H112C107.584 24 104 27.584 104 32V48H104zM56 160H120V104H64C59.584 104 56 107.584 56 112V160H56zM136 160H200V112C200 107.584 196.416 104 192 104H136V160H136zM64 232H120V176H56V224C56 228.416 59.584 232 64 232zM254.28 84.288L216 180V112C216 98.768 205.232 88 192 88H64C50.768 88 40 98.768 40 112V180L1.72 84.288C0.584 81.456 0 78.432 0 75.376V64H256V75.376C256 78.432 255.416 81.456 254.28 84.288zM136 232H192C196.416 232 200 228.416 200 224V176H136V232H136z" />
    <glyph glyph-name="height-2"
      unicode="&#xEA10;"
      horiz-adv-x="256" d="M133.656 221.656L101.656 253.656C98.528 256.784 93.472 256.784 90.344 253.656L58.344 221.656C56.056 219.368 55.368 215.928 56.608 212.936S60.768 208 64 208H88V96C88 91.584 91.584 88 96 88S104 91.584 104 96V208H128C131.232 208 134.152 209.944 135.392 212.936S135.944 219.368 133.656 221.656zM8 0C5.952 0 3.904 0.784 2.344 2.344C-0.784 5.472 -0.784 10.528 2.344 13.656L90.344 101.656C91.848 103.16 93.88 104 96 104H248C252.424 104 256 100.424 256 96S252.424 88 248 88H99.312L13.656 2.344C12.096 0.784 10.048 0 8 0z" />
    <glyph glyph-name="depth"
      unicode="&#xEA11;"
      horiz-adv-x="256" d="M109.656 109.656C106.528 112.784 101.472 112.784 98.344 109.656L32 43.312L13.656 61.656C11.36 63.952 7.92 64.648 4.936 63.392C1.944 62.16 0 59.232 0 56V8C0 3.576 3.584 0 8 0H56C59.232 0 62.152 1.944 63.392 4.936S63.944 11.368 61.656 13.656L43.312 32L109.656 98.344C112.784 101.472 112.784 106.528 109.656 109.656zM248 96H104C99.584 96 96 99.576 96 104V248C96 252.424 99.584 256 104 256S112 252.424 112 248V112H248C252.416 112 256 108.424 256 104S252.416 96 248 96z" />
    <glyph glyph-name="pallet"
      unicode="&#xEA12;"
      horiz-adv-x="256" d="M0 64H48V48C48 43.584 44.416 40 40 40H8C3.584 40 0 43.584 0 48V64H0zM208 64H256V48C256 43.584 252.416 40 248 40H216C211.584 40 208 43.584 208 48V64H208zM104 64H152V48C152 43.584 148.416 40 144 40H112C107.584 40 104 43.584 104 48V64H104zM254.28 100.288L210.008 210.968C208.792 214.008 205.848 216 202.584 216H189.4L218.192 96H201.736L172.944 216H153.752L163.352 96H147.304L137.704 216H118.312L108.704 96H92.656L102.264 216H83.072L54.264 96H37.816L66.624 216H53.432C50.16 216 47.216 214.008 46.008 210.968L1.72 100.288C0.584 97.456 0 94.432 0 91.376V80H256V91.376C256 94.432 255.416 97.456 254.28 100.288z" />
    <glyph glyph-name="stop-sign"
      unicode="&#xEA13;"
      horiz-adv-x="256" d="M149.136 145.6C142.304 145.6 138.264 140.248 138.264 131.2V124.608C138.264 115.696 142.264 110.424 149.136 110.424S160 115.696 160 124.608V131.2C160 140.224 155.888 145.6 149.136 145.6zM202.544 145.176H195.08V128.08H201.072C207.904 128.08 210.936 130.32 210.936 136.632A7.68 7.68 0 0 1 202.544 145.176zM251.312 185.704L185.712 251.304A16 16 0 0 1 174.4 256H81.6A16 16 0 0 1 70.296 251.312L4.696 185.712A16 16 0 0 1 0 174.4V81.6A16 16 0 0 1 4.688 70.288L70.288 4.688A16 16 0 0 1 81.6 0H174.4A16 16 0 0 1 185.712 4.688L251.312 70.288A16 16 0 0 1 256 81.6V174.4A16 16 0 0 1 251.312 185.704zM53.496 99.632A26.712 26.712 0 0 0 35.592 105.312A9.744 9.744 0 0 0 32 112.064A5.184 5.184 0 0 0 37.152 117.496A8.272 8.272 0 0 0 42.904 114.816A16.528 16.528 0 0 1 54.176 110.064C59.888 110.064 62.976 112.144 62.976 115.896C62.976 118.928 60.576 120.808 54.824 122.048L47.32 123.768C37.488 125.84 32.656 130.92 32.656 139.264C32.656 149.7359999999999 40.808 156.368 53.592 156.368A25.136 25.136 0 0 0 70.568 150.848A9.6 9.6 0 0 0 74.16 143.864A4.8 4.8 0 0 0 69.008 138.944A7.416 7.416 0 0 0 63.896 141.304A13.08 13.08 0 0 1 53.752 145.976C48.952 145.976 45.88 143.7839999999999 45.88 140.376C45.88 137.384 48.192 135.264 53.272 134.264L60.864 132.624C71.008 130.592 75.92 125.592 75.92 117.328C75.904 106.544 67.2 99.632 53.496 99.632zM117.496 144.536H107.096V107.384A6.624 6.624 0 1 0 93.872 107.384V144.536H83.496A5.416 5.416 0 0 0 83.496 155.368H117.496A5.416 5.416 0 0 0 117.496 144.536zM173.184 124.608A22.52 22.52 0 0 0 149.136 99.632A22.536 22.536 0 0 0 125.04 124.608V131.12A22.696 22.696 0 0 0 149.136 156.368A22.68 22.68 0 0 0 173.184 131.12zM203.824 118.256H195.024V107.544A6.264 6.264 0 0 0 188.392 100.432C184.192 100.432 181.84 102.992 181.84 107.544V146.336C181.84 152.848 184.24 155.368 190.464 155.368H204.488A17.776 17.776 0 0 0 224 136.872A17.784 17.784 0 0 0 203.824 118.256z" />
    <glyph glyph-name="garden-fork"
      unicode="&#xEA14;"
      horiz-adv-x="256" d="M253.656 213.656L213.656 253.656A8 8 0 0 1 202.344 253.656L186.344 237.656A8 8 0 0 1 184 232V195.312L107.312 118.624L118.624 107.312L195.312 184H232A8 8 0 0 1 237.656 186.344L253.656 202.344A8 8 0 0 1 253.656 213.656zM228.688 200H200V228.688L208 236.688L236.688 208zM114.344 88.968L88.976 114.344A24.072 24.072 0 0 1 55.032 114.344L2.344 61.664A8 8 0 1 1 13.656 50.352L66.344 103.032A8.168 8.168 0 0 0 77.656 103.032L84.688 96L26.344 37.656A8 8 0 0 1 37.656 26.344L96 84.688L103.024 77.656A8 8 0 0 0 103.024 66.344L50.344 13.648A8 8 0 1 1 61.656 2.344L114.336 55.032A24 24 0 0 1 114.344 88.968z" />
    <glyph glyph-name="ladder"
      unicode="&#xEA15;"
      horiz-adv-x="256" d="M174.184 253.072A8 8 0 0 1 168 256H91.672A32 32 0 0 1 60.296 230.272L16.16 9.6A8 8 0 1 1 31.84 6.464L38.56 40H118.24L112.16 9.6A8 8 0 0 1 118.4 0.16A7.584 7.584 0 0 1 120 0A8 8 0 0 1 127.832 6.4L175.832 246.4A8 8 0 0 1 174.184 253.072zM60.96 152L67.36 184H147.04L140.64 152zM137.44 136L131.04 104H51.36L57.76 136zM41.76 56L48.16 88H127.84L121.44 56zM150.24 200H70.56L76 227.136A16 16 0 0 0 91.672 240H158.24zM239.728 10.064L185.536 213.264L178.44 177.776L206.656 72H157.272L150.872 40H215.2L224.288 5.936A8 8 0 0 1 232 0A8.088 8.088 0 0 1 234.064 0.272A8 8 0 0 1 239.728 10.064z" />
    <glyph glyph-name="bucket-2"
      unicode="&#xEA16;"
      horiz-adv-x="256" d="M160 256H96A72 72 0 0 1 24 184V168A16 16 0 0 1 40 152H40.664C48.04 128.728 119.456 128 128 128S208 128.728 215.336 152H216A16 16 0 0 1 232 168V184A72 72 0 0 1 160 256zM128 144C88.664 144 62.872 151.2 56.8 156C62.84 160.8 88.632 168 128 168S193.128 160.8 199.2 156C193.128 151.2 167.336 144 128 144zM216 168H209.48C190.4 183.448 135.432 184 128 184S65.6 183.448 46.52 168H40V184A56 56 0 0 0 96 240H160A56 56 0 0 0 216 184zM128 112C102.488 112 65.728 114.536 43.424 127.072L56.144 22.664C58.544 1.096 116.424 0 128 0S197.456 1.096 199.848 22.576L212.576 127.08C190.28 114.536 153.512 112 128 112z" />
    <glyph glyph-name="garden-shears"
      unicode="&#xEA17;"
      horiz-adv-x="256" d="M150.496 150.616A8 8 0 0 0 142.96 161.288L160.464 210.672A8 8 0 0 0 161.752 213L193.752 253A8 8 0 0 0 207 244.128L157.496 154.744A8 8 0 0 0 150.496 150.616zM158.608 142.496A8 8 0 0 0 153.488 156.64A7.888 7.888 0 0 0 156.168 159.04L244.168 207.04A8 8 0 0 0 252.8 193.6L220.8 169.6A8.144 8.144 0 0 0 219.248 168.688L161.848 143.2A8 8 0 0 0 158.608 142.496zM144 104A39.856 39.856 0 0 0 135.152 105.064L81.08 12A8 8 0 0 1 94.92 3.952L150.704 99.952A8.056 8.056 0 0 1 151.792 103.904V104.8A39.8 39.8 0 0 0 144 104zM144 168A24 24 0 0 1 121.472 152H104A8 8 0 0 1 100 150.912L4 94.912A8 8 0 0 1 12 81.088L106.168 136H121.472A23.96 23.96 0 1 1 144 168zM144 136A8 8 0 1 0 152 144A8 8 0 0 0 144 136z" />
    <glyph glyph-name="boots"
      unicode="&#xEA18;"
      horiz-adv-x="256" d="M131.832 208L136 247.2A8 8 0 0 1 128 256H8A8 8 0 0 1 0 248C0 232.712 0.352 219.568 0.936 208zM174.28 67.704L165.016 69.552A40.064 40.064 0 0 0 147.88 77.552L137.48 85.856A39.84 39.84 0 0 0 122.688 121.28L130.152 192H1.96A336.8 336.8 0 0 1 11.56 132.64A111.016 111.016 0 0 0 16 104A153.432 153.432 0 0 0 12.16 77.6A162.48 162.48 0 0 1 8 48A188 188 0 0 1 12.24 6.064A8 8 0 0 1 20 0H68A8 8 0 0 1 75.888 6.688L77.64 17.168A89.936 89.936 0 0 1 128 0C177.248 0 194.944 12.208 196.8 13.6A8 8 0 0 1 200 20V36.328A32.088 32.088 0 0 1 174.28 67.704zM147.92 208H186.992L191.112 247.2A8 8 0 0 1 183.2 256H150.56A23.904 23.904 0 0 0 151.864 245.48zM230.28 75.704L221.024 77.552A40.192 40.192 0 0 0 203.88 85.552L193.48 93.856A39.84 39.84 0 0 0 178.688 129.28L185.312 192H146.24L138.616 119.6A23.912 23.912 0 0 1 147.488 98.344L157.888 90.04A23.936 23.936 0 0 1 168.16 85.24L177.432 83.384A48.12 48.12 0 0 0 216 36.328V20A23.936 23.936 0 0 0 213.6 9.736C240.6 13.152 251.36 20.536 252.8 21.6A8 8 0 0 1 256 28V44.328A32.088 32.088 0 0 1 230.28 75.704z" />
    <glyph glyph-name="wheelbarrow"
      unicode="&#xEA19;"
      horiz-adv-x="256" d="M50.736 18.528L50.688 18.616A24 24 0 1 0 61.384 50.688L75.64 57.816A39.872 39.872 0 1 1 79.272 32.8zM255.592 250.528A8 8 0 0 1 245.472 255.584L215.632 245.6A8 8 0 0 1 210.256 239.2L204.136 199.392L14.68 167.888A8 8 0 0 1 10.344 154.344L90.496 74.192L36.424 47.16A8 8 0 0 1 43.576 32.84L102.4 62.264L126.896 37.776A18.624 18.624 0 0 1 140.08 32.304A18.304 18.304 0 0 1 145.504 33.104A18.608 18.608 0 0 1 158.4 47.304L168 95.04L181.408 101.744A56.08 56.08 0 0 1 211.712 143.344L225.328 232L250.528 240.408A8 8 0 0 1 255.592 250.528zM142.728 50.448A2.664 2.664 0 0 0 138.232 49.088L117.504 69.808L149.84 85.976z" />
    <glyph glyph-name="hose"
      unicode="&#xEA1A;"
      horiz-adv-x="256" d="M64 120A24 24 0 0 0 40 144C40 162.776 56.464 179.784 58.344 181.656A8 8 0 0 0 69.656 181.656C71.536 179.784 88 162.776 88 144A24 24 0 0 0 64 120zM175.952 220.28A8 8 0 0 1 164.952 217.624L160.424 210.208L87.704 246.008A8 8 0 0 1 77.344 243L69 229.344A8 8 0 0 1 71.064 218.744L136.128 170.4L131.6 162.984A8 8 0 0 1 134.264 152A7.88 7.88 0 0 1 138.424 150.832A8 8 0 0 1 145.256 154.656L178.608 209.28A8 8 0 0 1 175.952 220.28zM250.288 47.544A24 24 0 0 1 232 56H48.856A8.688 8.688 0 0 0 40.112 62.592A8 8 0 0 0 48 72H109.984A87.472 87.472 0 0 1 161.744 88.8L192.28 111.008A38.088 38.088 0 0 1 189.76 174.296L179.752 180.416L171.416 166.8L181.408 160.688A22.096 22.096 0 0 0 182.872 123.976L152.336 101.776A71.576 71.576 0 0 0 109.984 88H48A24 24 0 0 1 24.328 60A24.656 24.656 0 0 1 48.856 40H232A8 8 0 0 0 239.888 30.6A8.68 8.68 0 0 0 231.144 24H8A8 8 0 0 1 8 8H231.144A24.656 24.656 0 0 1 255.672 28A24.048 24.048 0 0 1 250.288 47.544z" />
    <glyph glyph-name="sickle-2"
      unicode="&#xEA1B;"
      horiz-adv-x="256" d="M24 8A8 8 0 0 0 18.344 10.344L2.344 26.344A8 8 0 0 0 2.344 37.656L34.344 69.656A8 8 0 0 0 45.656 69.656L61.656 53.656A8 8 0 0 0 61.656 42.344L29.656 10.344A8 8 0 0 0 24 8zM222.768 222.608A111.136 111.136 0 0 1 139.424 255.48A8 8 0 0 1 137.368 239.856L146.472 236.968A84.296 84.296 0 0 0 183.32 215.32C214.232 184.4 216.36 136.224 188.064 107.928A74.68 74.68 0 0 0 92.864 102.568A8 8 0 0 1 82.672 101.632L59.32 78.624L70.64 67.304L83.008 79.448A111.2 111.2 0 0 1 155.512 47.92C156.944 47.864 158.36 47.832 159.776 47.832A95.08 95.08 0 0 1 255.92 148.32A111.408 111.408 0 0 1 222.768 222.608z" />
    <glyph glyph-name="pruning-saws"
      unicode="&#xEA1C;"
      horiz-adv-x="256" d="M251.72 141.336A229.112 229.112 0 0 1 144 168H96A110.896 110.896 0 0 0 14.448 203.408A8 8 0 0 1 0.664 197.008A95.92 95.92 0 0 1 124.856 116.456A39.152 39.152 0 0 1 151.8 151.768A213.2 213.2 0 0 0 244.28 127.2A8 8 0 1 1 251.72 141.36zM104 132A8 8 0 1 0 112 140A8 8 0 0 0 104 132zM204.128 14.848A215.736 215.736 0 0 0 124 99.64A111.48 111.48 0 0 0 107.488 96.664A231.464 231.464 0 0 1 195.872 1.152A8 8 0 1 1 204.128 14.848zM96 184H120.304A115.136 115.136 0 0 1 103.312 207.768A138.968 138.968 0 0 0 76.04 250.992A8 8 0 0 1 60.8 249.816A184.88 184.88 0 0 1 56 208C56 202.768 56.288 197.6 56.72 192.448A95.096 95.096 0 0 1 96 184z" />
    <glyph glyph-name="spade"
      unicode="&#xEA1D;"
      horiz-adv-x="256" d="M253.656 213.656L213.656 253.656A8 8 0 0 1 202.344 253.656L186.344 237.656A8 8 0 0 1 184 232V195.312L74.344 85.656A8 8 0 1 1 85.656 74.344L195.312 184H232A8 8 0 0 1 237.656 186.344L253.656 202.344A8 8 0 0 1 253.656 213.656zM228.688 200H200V228.688L208 236.688L236.688 208zM110.624 76.688L96.968 63.032A24 24 0 1 0 63.032 96.968L76.688 110.624L61.656 125.656A8 8 0 0 1 50.344 125.656L16.4 91.72A55.664 55.664 0 0 1 0 52.12V8A8 8 0 0 1 8 0H52.12A55.608 55.608 0 0 1 91.712 16.408L125.656 50.344A8 8 0 0 1 125.656 61.656z" />
    <glyph glyph-name="gardening-tools"
      unicode="&#xEA1E;"
      horiz-adv-x="256" d="M196 254.904A8 8 0 0 1 188.392 255.16A85.664 85.664 0 0 1 144 180V120A8 8 0 0 1 152 112H168V144A24 24 0 0 0 216 144V112H232A8 8 0 0 1 240 120V180C240 228.688 197.832 253.856 196 254.904zM112 248A8 8 0 0 1 96 248V147.144A12 12 0 0 0 72.088 148L72 147.84V248A8 8 0 0 1 56 248V147.952A12 12 0 0 0 32 148V248A8 8 0 0 1 16 248V144A32.048 32.048 0 0 1 48 112H80A32 32 0 0 1 112 144zM88 16H72V96H56V16H40A8 8 0 0 1 40 0H88A8 8 0 0 1 88 16zM216 16H200V144A8 8 0 0 1 184 144V16H168A8 8 0 0 1 168 0H216A8 8 0 0 1 216 16z" />
    <glyph glyph-name="trowel"
      unicode="&#xEA1F;"
      horiz-adv-x="256" d="M150.624 131.312A32 32 0 0 1 160 153.944V166.064A16 16 0 0 0 164.688 177.376L229.656 242.344A8 8 0 0 1 218.344 253.656L153.376 188.688A32 32 0 0 1 144 166.056V153.936A16 16 0 0 0 139.312 142.624L129.272 132.592L93.448 165.856A8 8 0 0 1 80.648 163.104L16.648 11.104A8 8 0 0 1 24 0A8.224 8.224 0 0 1 26.104 0.28L202.104 48.28A8 8 0 0 1 205.448 61.88L152.736 110.8L100.28 58.344A8 8 0 1 0 88.968 69.656z" />
    <glyph glyph-name="rake"
      unicode="&#xEA20;"
      horiz-adv-x="256" d="M253.656 253.656A8 8 0 0 1 242.344 253.656L211.304 222.632L222.616 211.32L253.656 242.344A8 8 0 0 1 253.656 253.656zM200 211.312L116.696 128H8A8 8 0 0 1 8 112H16.408A102.888 102.888 0 0 1 26.312 75.152L19 70.928A8 8 0 0 1 27 57.072L34.264 61.256A104.8 104.8 0 0 1 61.256 34.264L57.072 27.008A8 8 0 1 1 70.928 19.008L75.144 26.312A102.976 102.976 0 0 1 112 16.408V8A8 8 0 0 1 128 8V116.672L211.312 200zM40.192 83.16A87.2 87.2 0 0 0 32.408 112H72.72A47.36 47.36 0 0 1 75.048 103.288zM69.304 48.192A88.8 88.8 0 0 0 48.192 69.304L83.016 89.408A47.784 47.784 0 0 1 89.416 83.008zM112 32.408A87.2 87.2 0 0 0 83.16 40.192L103.288 75.048A47.36 47.36 0 0 1 112 72.72z" />
    <glyph glyph-name="watering-can"
      unicode="&#xEA21;"
      horiz-adv-x="256" d="M208 96L154.736 100.44L182.512 139.328A8 8 0 0 1 181.656 149.632L125.656 205.632L107.896 223.4A31.952 31.952 0 0 1 66.92 226.984L25.6 198.096A32 32 0 0 1 20.144 150.496L26.696 143.192L3.352 126.512A8 8 0 0 1 2.344 114.352L90.344 26.352A8 8 0 0 1 96 24L96.664 24A8 8 0 0 1 102.512 27.328L117.6 48.44L208 56zM39.808 152.552L32.056 161.184A16 16 0 0 0 34.784 184.984L76.096 213.896A16 16 0 0 0 96.584 212.112L107.672 201.024zM170.624 183.312L189.656 202.344A8 8 0 1 1 178.344 213.656L159.312 194.624zM251.776 111.056A8 8 0 0 1 243.56 110.656L224 97.6V54.4L243.56 41.36A8 8 0 0 1 256 48V104A8 8 0 0 1 251.776 111.056z" />
    <glyph glyph-name="compare-items"
      unicode="&#xEA22;"
      horiz-adv-x="256" d="M96 24H24A24 24 0 0 0 0 48V208A24 24 0 0 0 24 232H96A24 24 0 0 0 120 208V48A24 24 0 0 0 96 24zM152 192H136V208A24 24 0 0 0 160 232H184V216H160A8 8 0 0 1 152 208zM256 192H240V208A8 8 0 0 1 232 216H208V232H232A24 24 0 0 0 256 208zM232 24H208V40H232A8 8 0 0 1 240 48V64H256V48A24 24 0 0 0 232 24zM184 24H160A24 24 0 0 0 136 48V64H152V48A8 8 0 0 1 160 40H184zM136 176H152V136H136V176zM136 120H152V80H136V120zM240 176H256V136H240V176zM240 120H256V80H240V120z" />
    <glyph glyph-name="pagoda"
      unicode="&#xEA23;"
      horiz-adv-x="256" d="M48 40V8A8 8 0 0 1 56 0H80V20A4 4 0 0 0 84 24H92A4 4 0 0 0 96 20V0H120V20A4 4 0 0 0 124 24H132A4 4 0 0 0 136 20V0H160V20A4 4 0 0 0 164 24H172A4 4 0 0 0 176 20V0H200A8 8 0 0 1 208 8V40zM48 136V96H80V116A4 4 0 0 0 84 120H92A4 4 0 0 0 96 116V96H120V116A4 4 0 0 0 124 120H132A4 4 0 0 0 136 116V96H160V116A4 4 0 0 0 164 120H172A4 4 0 0 0 176 116V96H208V136zM246.728 84.928A8 8 0 0 1 238.624 88.6A40.096 40.096 0 0 0 232 88A39.616 39.616 0 0 0 208.248 96H47.752A39.616 39.616 0 0 0 24 88A40.096 40.096 0 0 0 17.376 88.6A8 8 0 0 1 9.6 76A47.008 47.008 0 0 1 48 56H208A47.008 47.008 0 0 1 246.4 76A8 8 0 0 1 246.728 84.928zM246.728 180.928A8 8 0 0 1 238.624 184.6A40.176 40.176 0 0 0 232 184A39.384 39.384 0 0 0 210.472 190.456L133.088 254.168A8 8 0 0 1 122.912 254.168L45.528 190.456A39.384 39.384 0 0 0 24 184A40.176 40.176 0 0 0 17.376 184.6A8 8 0 0 1 9.6 172A47.024 47.024 0 0 1 48 152H208A47.024 47.024 0 0 1 246.4 172A8 8 0 0 1 246.728 180.928zM128 176A16 16 0 1 0 144 192A16 16 0 0 0 128 176z" />
    <glyph glyph-name="windmill-2"
      unicode="&#xEA24;"
      horiz-adv-x="256" d="M166.632 166.632A8 8 0 0 1 177.944 166.632L221.656 210.344A8 8 0 0 1 221.656 221.656L205.656 237.656A8 8 0 0 1 194.344 237.656L128 171.312L116.688 182.632A8 8 0 0 0 116.688 193.944L121.368 198.632A8 8 0 0 1 121.368 209.944L77.656 253.656A8 8 0 0 1 66.344 253.656L50.344 237.656A8 8 0 0 1 50.344 226.344L116.688 160L105.376 148.688A8 8 0 0 0 94.056 148.688L89.368 153.376A8 8 0 0 1 78.056 153.376L34.344 109.656A8 8 0 0 1 34.344 98.344L50.344 82.344A8 8 0 0 1 61.656 82.344L128 148.688L139.312 137.376A8 8 0 0 0 139.312 126.064L134.632 121.376A8 8 0 0 1 134.632 110.064L178.344 66.352A8 8 0 0 1 189.656 66.352L205.656 82.352A8 8 0 0 1 205.656 93.664L139.312 160L150.632 171.32A8 8 0 0 0 161.944 171.32zM179.792 48.416A23.792 23.792 0 0 0 167.032 55.04L123.32 98.752A23.888 23.888 0 0 0 116.336 114.392L79.248 77.312L72.048 8.832A8 8 0 0 1 80 0H112V32A16 16 0 0 0 144 32V0H176A8 8 0 0 1 184 8.8z" />
    <glyph glyph-name="windmill"
      unicode="&#xEA25;"
      horiz-adv-x="256" d="M209.152 122.288L164.656 157.216A7.944 7.944 0 0 1 160.192 158.912L151.944 159.408C151.944 159.608 152 159.8 152 160A23.912 23.912 0 0 1 139.432 180.968L143.16 188.424A8 8 0 0 1 143.92 193.136L135.92 249.136A8 8 0 0 1 120.08 249.136L112.08 193.136A8 8 0 0 1 112.88 188.424L116.608 180.968A23.912 23.912 0 0 1 104 160C104 159.8 104.056 159.608 104.056 159.408L95.808 158.912A7.944 7.944 0 0 1 91.344 157.216L46.848 122.288A8 8 0 0 1 54.768 108.576L107.272 129.648A8 8 0 0 1 110.968 132.6640000000001L115.536 139.5920000000001A23.424 23.424 0 0 1 140.464 139.5920000000001L145.032 132.6640000000001A8 8 0 0 1 148.728 129.648L201.232 108.576A7.904 7.904 0 0 1 204.208 108A8 8 0 0 1 209.152 122.2880000000001zM128 152A8 8 0 1 0 136 160A8 8 0 0 0 128 152zM184 16H136V120.8A40 40 0 0 0 120 120.8V16H72A8 8 0 0 1 72 0H184A8 8 0 0 1 184 16z" />
    <glyph glyph-name="cn-tower"
      unicode="&#xEA26;"
      horiz-adv-x="256" d="M166 205.296A8 8 0 0 1 160 208H138.68L136 248.528A8 8 0 0 1 120 248.528L117.32 208H96A8 8 0 0 1 88.064 199.008L92.064 167.008A8 8 0 0 1 100 160H156A8 8 0 0 1 163.936 167.008L167.936 199.008A8 8 0 0 1 166 205.296zM184 16H151.48L142.952 144H113.048L104.52 16H72A8 8 0 0 1 72 0H184A8 8 0 0 1 184 16z" />
    <glyph glyph-name="sagrada-familia"
      unicode="&#xEA27;"
      horiz-adv-x="256" d="M88 208A31.552 31.552 0 0 0 77.792 209.824C71.552 181.384 66.776 127.856 64.888 62.576L65.232 63.592A24 24 0 0 0 73.016 74.752L109.464 103.792A738.8 738.8 0 0 1 98.264 209.832A31.48 31.48 0 0 0 88 208zM72 240A16 16 0 0 1 104 240A16 16 0 0 1 72 240M191.592 10.528L175.592 58.528A8 8 0 0 1 173.008 62.232L133.168 94.232A8 8 0 0 1 123.176 94.232L83.016 62.232A8 8 0 0 1 80.408 58.504L64.408 10.504A8 8 0 0 1 72 0H112V32A16 16 0 0 0 144 32V0H184A8 8 0 0 1 191.592 10.528zM36 176A31.704 31.704 0 0 0 25.6 177.872A1276.24 1276.24 0 0 1 16 8.064A8.048 8.048 0 0 1 24 0H48C48 45.504 49.352 89 51.856 126.448C50.344 146.944 48.464 164.384 46.336 177.864A31.632 31.632 0 0 0 36 176zM20 208A16 16 0 0 1 52 208A16 16 0 0 1 20 208M220 176A31.424 31.424 0 0 0 209.664 177.864C207.536 164.384 205.664 146.944 204.144 126.448C206.648 89 208 45.504 208 0H232A8.048 8.048 0 0 1 240 8.064A1276.24 1276.24 0 0 1 230.4 177.872A31.704 31.704 0 0 0 220 176zM204 208A16 16 0 0 1 236 208A16 16 0 0 1 204 208M168 208A31.648 31.648 0 0 0 157.776 209.824A738.52 738.52 0 0 1 146.536 103.792L182.984 74.752A24 24 0 0 0 190.768 63.592L191.112 62.576C189.224 127.856 184.448 181.384 178.208 209.824A31.552 31.552 0 0 0 168 208zM152 240A16 16 0 0 1 184 240A16 16 0 0 1 152 240" />
    <glyph glyph-name="great-wall"
      unicode="&#xEA28;"
      horiz-adv-x="256" d="M250.76 183.504L206.76 199.68A8.056 8.056 0 0 1 201.264 199.68L157.264 183.68A8 8 0 0 1 152 176.16V118.824L184 135.664V148A20 20 0 0 0 224 148V138.648L98.176 72.432H98.176L96 96.728A8 8 0 0 1 88 104H16A8 8 0 0 1 8 96.728L0 8.728A8 8 0 0 1 8 0H32V36A20 20 0 0 0 72 36V0H96C96.24 0 96.488 0 96.728 0A8.152 8.152 0 0 1 99.888 0.968L251.736 80.888A8 8 0 0 1 256 88V176A8 8 0 0 1 250.76 183.504zM3.24 159.752H3.24A8.28 8.28 0 0 1 4.944 158.6L78.16 120H88A23.888 23.888 0 0 0 111.904 98.176L111.944 97.752L136 110.4V143.76L32 198.6V204A20 20 0 0 0 72 204V195.608L136 161.856V176.168A23.752 23.752 0 0 0 136.288 179.8L100.52 198.664L96 248.728A8 8 0 0 1 88 256H16A8 8 0 0 1 8 248.728L0.56 166.512L0.56 166.296H0.56V166.296H0.56V166.296H0.56V166.296H0.56A8 8 0 0 1 2.16 161.136A8.304 8.304 0 0 1 3.24 159.752z" />
    <glyph glyph-name="burj-al-arab"
      unicode="&#xEA29;"
      horiz-adv-x="256" d="M72 168L72 114.696L162.616 168L72 168zM72 88L72 25.928L184.864 88L72 88zM178.4 158.696L85.384 104H197.144A182.64 182.64 0 0 1 178.4 158.696zM88 241.184V248A8 8 0 0 1 72 248V200H48A8 8 0 0 1 48 184H162.152A184 184 0 0 1 88 241.184zM216 16H191.088A182.832 182.832 0 0 1 200 72C200 74 199.848 76 199.784 77.952L87.144 16H40A8 8 0 0 1 40 0H216A8 8 0 0 1 216 16z" />
    <glyph glyph-name="statue-of-liberty"
      unicode="&#xEA2A;"
      horiz-adv-x="256" d="M86.184 136.208L106.576 131.408A32 32 0 0 1 165.424 131.408L185.816 136.208A8 8 0 0 1 185.816 151.792L166.248 156.36L182.144 179.008A8 8 0 0 1 171 190.152L148.5999999999999 174.416L143.88 201.384A8 8 0 0 1 128.12 201.384L123.4 174.416L100.9999999999999 190.152A8 8 0 0 1 89.8559999999999 179.008L105.7519999999999 156.36L86.1839999999999 151.792A8 8 0 0 1 86.1839999999999 136.208zM64 224A16 16 0 0 0 32 224C32 240 48 256 48 256S64 240 64 224zM212.472 0L228.472 30.752A8 8 0 0 1 225.336 41.384L207.088 51.784A8 8 0 0 1 195.952 48.384L172 0zM179.888 103.608L126.552 27.416A8 8 0 0 0 113.448 36.584L160.632 104H99.312L78.992 124.32L59.104 184H64A8 8 0 0 1 64 200H32A8 8 0 0 1 32 184H41.6L56.208 118.264C56.264 118 56.344 117.736 56.424 117.464L60.752 104.472L56.16 81.6A8 8 0 0 1 56.568 77.064L72 38.456V0H154.104L181.6 55.504A23.864 23.864 0 0 0 203.112 68.848A23.392 23.392 0 0 0 208 68.208V72A31.928 31.928 0 0 1 179.888 103.608z" />
    <glyph glyph-name="sphinx"
      unicode="&#xEA2B;"
      horiz-adv-x="256" d="M52 48H20A20 20 0 0 1 0 28V8A8 8 0 0 1 8 0H64A8 8 0 0 1 72 8V28A20 20 0 0 1 52 48zM236 48H204A20 20 0 0 1 184 28V8A8 8 0 0 1 192 0H248A8 8 0 0 1 256 8V28A20 20 0 0 1 236 48zM225.24 94.464A20 20 0 0 1 205.488 112L184 94.088V80A8 8 0 0 0 168 80V97.832A8 8 0 0 0 170.88 104L221.12 145.872A8 8 0 0 1 223.16 155.592L186.472 228.944A20 20 0 0 1 168.584 240H136V248A8 8 0 0 1 120 248V240H87.416A20 20 0 0 1 69.528 228.944L32.848 155.576A8 8 0 0 1 34.88 145.848L85.12 104A8 8 0 0 0 88 97.848V80A8 8 0 0 0 72 80V94.088L50.512 112A20 20 0 0 1 30.752 94.488L26.936 64H52A36 36 0 0 0 88 28V16H120V40A8 8 0 0 0 136 40V16H168V28A36 36 0 0 0 204 64H229.024zM128 128A40.048 40.048 0 0 0 88 168V208A8 8 0 0 0 96 216H160A8 8 0 0 0 168 208V168A40.048 40.048 0 0 0 128 128z" />
    <glyph glyph-name="pisa-tower"
      unicode="&#xEA2C;"
      horiz-adv-x="256" d="M248 16H193.088L194.552 27.904A8 8 0 1 1 196.496 43.784L201.376 83.48A8 8 0 0 1 203.328 99.36L208.2 139.064A8 8 0 0 1 210.152 154.944L215.024 194.648A8 8 0 0 1 216.976 210.528L193.152 213.456L196.08 237.272A8 8 0 0 1 189.112 246.192L109.712 255.936A8 8 0 0 1 100.8 248.976L97.88 225.152L74.048 228.08A8 8 0 0 1 72.088 212.2L67.152 172.488A8 8 0 0 1 65.184 156.64L60.248 116.904A8 8 0 0 1 58.288 101.088L53.344 61.312A7.952 7.952 0 0 1 51.384 45.528L47.72 16H8A8 8 0 0 1 8 0H248A8 8 0 0 1 248 16zM135.76 139.896A9.992 9.992 0 0 0 144.464 128.752L141.784 106.92L121.936 109.36L124.616 131.192A9.992 9.992 0 0 0 135.76 139.896zM128.76 164.936L131.44 186.776A10 10 0 0 0 151.296 184.376L148.608 162.544L146.624 162.784L130.744 164.736zM128.936 84.32A9.992 9.992 0 0 0 137.6 73.176L134.92 51.336L115.072 53.736L117.752 75.568A10 10 0 0 0 128.936 84.32zM168.64 79.44A9.992 9.992 0 0 0 177.344 68.296L174.664 46.464L154.816 48.864L157.496 70.704A9.992 9.992 0 0 0 168.64 79.44zM161.6 104.48L164.28 126.32A10 10 0 1 0 184.128 123.92L181.448 102.088zM190.952 179.464L188.272 157.624L186.288 157.872L170.408 159.824L168.424 160.064L171.104 181.904A10 10 0 1 0 190.952 179.504zM115.696 239.08L179.224 231.288L177.272 215.4L113.752 223.2zM91.736 191.648A10 10 0 0 0 111.592 189.248L108.912 167.408L106.928 167.656L91.04 169.6L89.056 169.848zM84.912 136.064A10 10 0 1 0 104.768 133.664L102.088 111.824L82.232 114.224zM78.088 80.488A10 10 0 0 0 97.944 78.088L95.264 56.248L75.408 58.648z" />
    <glyph glyph-name="sydney-opera-house"
      unicode="&#xEA2D;"
      horiz-adv-x="256" d="M248 8H8A8 8 0 0 0 8 24H248A8 8 0 0 0 248 8zM247.592 197.472A8 8 0 0 1 240 208A112.12 112.12 0 0 1 128 96H213.768zM97.944 96H112A128.064 128.064 0 0 0 180.856 209.408A151.2 151.2 0 0 1 80 248A8 8 0 0 1 72.056 239.064L87.68 106.264zM240 72A8 8 0 0 1 232 80H91.312L69.656 101.656A8 8 0 0 1 64 104H24A8 8 0 0 1 16 96V40H240zM62.688 181.712A111.2 111.2 0 0 1 16 192A8 8 0 0 1 8.408 181.472L28.896 120H64A24 24 0 0 0 70.056 119.136z" />
    <glyph glyph-name="blockquote"
      unicode="&#xEA2E;"
      horiz-adv-x="256" d="M56 208A48 48 0 0 1 55.76 112A136.36 136.36 0 0 0 33.6 44.8A8 8 0 0 1 45.216 33.936C47.608 36 104 85.176 104 160A48.048 48.048 0 0 1 56 208zM200 208A48 48 0 0 1 199.76 112A136.36 136.36 0 0 0 177.6 44.8A8 8 0 0 1 189.216 33.936C191.608 36 248 85.176 248 160A48.048 48.048 0 0 1 200 208z" />
    <glyph glyph-name="function"
      unicode="&#xEA2F;"
      horiz-adv-x="256" d="M240 104C220.76 104 208.232 89.976 197.152 73.824C189.664 89.912 179.504 104 160 104A8 8 0 0 1 160 88C172.552 88 178.88 76.648 186.616 57.816C174.8 39.8 162.912 24 144 24A8 8 0 0 1 144 8C167.072 8 181.848 23.136 193.944 40.144C201.528 23.256 211.704 8 232 8A8 8 0 0 1 232 24C219.032 24 212.712 36.112 204.6 56.096C215.816 73.384 225.736 88 240 88A8 8 0 0 1 240 104zM160 248C127.088 248 110.728 211.536 98.232 168H56A8 8 0 0 1 56 152H93.84C91.928 144.696 90.08 137.304 88.24 129.936C77.28 86.088 65.968 41.136 44.928 27.952C33.368 24.424 42.632 48 28 48A20 20 0 0 1 8 28A22.272 22.272 0 0 1 32 8C74.24 8 89.248 68 103.76 126.056C105.928 134.744 108.12 143.472 110.392 152H152A8 8 0 0 1 152 168H114.88C123.008 195.44 132.648 218.632 146.6 227.752C157.24 233.368 149.136 208 164 208A20 20 0 0 1 184 228A22.272 22.272 0 0 1 160 248z" />
    <glyph glyph-name="croupier"
      unicode="&#xEA30;"
      horiz-adv-x="256" d="M227.2 72.112L208 82.592V0H240A8 8 0 0 1 248 8V37A40 40 0 0 1 227.2 72.112zM202 192C202 230.28 172.264 256 128 256S54 230.28 54 192C54 154.128 67.016 122.28 87.384 104.152L64 91.352V0H192V91.352L168.608 104.152C188.984 122.272 202 154.128 202 192zM70.72 178.216A45.6 45.6 0 0 0 109.496 200H128A39.872 39.872 0 0 1 156.416 211.872A39.744 39.744 0 0 1 185.216 177.72C180.984 134.84 157.84 104 128 104S74.84 135.08 70.72 178.216zM160 49.768A4 4 0 0 0 154.592 46.024L130.808 54.944A8 8 0 0 1 125.208 54.944L101.424 46.024A4 4 0 0 0 96 49.768V78.232A4 4 0 0 0 101.408 81.976L125.192 73.056A8 8 0 0 1 130.792 73.056L154.576 81.976A4 4 0 0 0 159.984 78.232zM48 82.6L28.848 72.12A40 40 0 0 1 8 37V8A8 8 0 0 1 16 0H48z" />
    <glyph glyph-name="casino"
      unicode="&#xEA31;"
      horiz-adv-x="256" d="M32 168V0H8A8 8 0 0 0 0 8V160A8 8 0 0 0 8 168zM248 0H224V168H248A8 8 0 0 0 256 160V8A8 8 0 0 0 248 0zM205.656 221.656A8 8 0 0 1 200 224H167.2A40 40 0 0 1 88.8 224H56A8 8 0 0 1 48 216V0H104V38.64A24.912 24.912 0 0 0 126.712 64A24 24 0 0 0 152 40V0H208V216A8 8 0 0 1 205.656 221.656zM120 92A4 4 0 0 0 116 88H84A4 4 0 0 0 80 92V108A4 4 0 0 0 84 112H116A4 4 0 0 0 120 108zM120 132A4 4 0 0 0 116 128H84A4 4 0 0 0 80 132V148A4 4 0 0 0 84 152H116A4 4 0 0 0 120 148zM120 172A4 4 0 0 0 116 168H84A4 4 0 0 0 80 172V188A4 4 0 0 0 84 192H116A4 4 0 0 0 120 188zM116 220A12 12 0 1 0 128 208A12 12 0 0 0 116 220zM176 92A4 4 0 0 0 172 88H140A4 4 0 0 0 136 92V108A4 4 0 0 0 140 112H172A4 4 0 0 0 176 108zM176 132A4 4 0 0 0 172 128H140A4 4 0 0 0 136 132V148A4 4 0 0 0 140 152H172A4 4 0 0 0 176 148zM176 172A4 4 0 0 0 172 168H140A4 4 0 0 0 136 172V188A4 4 0 0 0 140 192H172A4 4 0 0 0 176 188z" />
    <glyph glyph-name="roulette"
      unicode="&#xEA32;"
      horiz-adv-x="256" d="M128 256A128 128 0 1 1 256 128A128 128 0 0 1 128 256zM156.96 236.08A111.736 111.736 0 0 0 207.2 207.2L184.568 184.568A79.824 79.824 0 0 1 148.688 205.2zM99.04 236.08L107.312 205.2A79.864 79.864 0 0 1 71.432 184.568L48.8 207.2A111.736 111.736 0 0 0 99.04 236.08zM19.92 99.04A108.936 108.936 0 0 0 19.92 156.96L50.8 148.688A77.824 77.824 0 0 1 50.8 107.312zM99.04 19.92A111.736 111.736 0 0 0 48.8 48.8L71.424 71.424A79.864 79.864 0 0 1 107.304 50.792zM128 116.688L111.4 100.088A15.68 15.68 0 0 0 112 96A16 16 0 1 0 96 112A15.68 15.68 0 0 0 100.088 111.4L116.688 128L100.088 144.6A15.68 15.68 0 0 0 96 144A16 16 0 1 0 112 160A15.68 15.68 0 0 0 111.4 155.912L128 139.312L144.6 155.912A15.68 15.68 0 0 0 144 160A16 16 0 1 0 160 144A15.68 15.68 0 0 0 155.912 144.6L139.312 128L155.912 111.4A15.68 15.68 0 0 0 160 112A16 16 0 1 0 144 96A15.68 15.68 0 0 0 144.6 100.088zM156.96 19.888L148.688 50.768A79.864 79.864 0 0 1 184.568 71.4L207.2 48.8A111.736 111.736 0 0 0 156.96 19.92zM205.2 107.28A77.824 77.824 0 0 1 205.2 148.656L236.08 156.928A108.936 108.936 0 0 0 236.08 99.008z" />
    <glyph glyph-name="horseshoe"
      unicode="&#xEA33;"
      horiz-adv-x="256" d="M128 0A112.128 112.128 0 0 1 240 112C240 149.008 230.152 183.2 219.728 219.344L219.728 219.472L234.56 224.416A8 8 0 0 1 239.192 235.616L231.192 251.616A8 8 0 0 1 221.504 255.616L181.504 242.28A8 8 0 0 1 176.592 231.752A314.4 314.4 0 0 0 196 132A68 68 0 0 0 60 132A314.4 314.4 0 0 0 79.44 231.72A8 8 0 0 1 74.528 242.248L34.528 255.584A8 8 0 0 1 24.84 251.584L16.84 235.584A8 8 0 0 1 21.472 224.384L36.304 219.44L36.304 219.312C25.848 183.2 16 149 16 112A112.128 112.128 0 0 1 128 0z" />
    <glyph glyph-name="slot-machine"
      unicode="&#xEA34;"
      horiz-adv-x="256" d="M256 168A24 24 0 1 1 224 145.472V96A16 16 0 0 0 208 80H184V64H208A32 32 0 0 1 240 96V145.472A24 24 0 0 1 256 168zM24 80V8A8 8 0 0 1 32 0H160A8 8 0 0 1 168 8V80zM128 52A4 4 0 0 0 124 48H68A4 4 0 0 0 64 52V60A4 4 0 0 0 68 64H124A4 4 0 0 0 128 60zM184 224H146.552A55.928 55.928 0 0 1 45.448 224H8A8 8 0 0 1 0 216V104A8 8 0 0 1 8 96H184A8 8 0 0 1 192 104V216A8 8 0 0 1 184 224zM160 132A4 4 0 0 0 156 128H36A4 4 0 0 0 32 132V188A4 4 0 0 0 36 192H156A4 4 0 0 0 160 188z" />
    <glyph glyph-name="lucky-seven"
      unicode="&#xEA35;"
      horiz-adv-x="256" d="M0 64H256V192H0zM80 146.008A3.936 3.936 0 0 0 78.48 142.872A60.296 60.296 0 0 1 56.08 99.944A4.136 4.136 0 0 0 52.056 96C47.016 96 44.12 96 44.12 96A4.048 4.048 0 0 0 40.12 100.16A58.16 58.16 0 0 0 59.448 144H36A4 4 0 0 0 32 148V156A4 4 0 0 0 36 160H76A4 4 0 0 0 80 156zM152 146.008A3.936 3.936 0 0 0 150.48 142.872A60.296 60.296 0 0 1 128.12 99.944A4.136 4.136 0 0 0 124.056 96.04C119.016 96.04 116.12 96.04 116.12 96.04A4.048 4.048 0 0 0 112.12 100.2A58.16 58.16 0 0 0 131.448 144H108A4 4 0 0 0 104 148V156A4 4 0 0 0 108 160H148A4 4 0 0 0 152 156zM224 146.008A3.936 3.936 0 0 0 222.48 142.872A60.296 60.296 0 0 1 200.12 99.944A4.136 4.136 0 0 0 196.056 96.04C191.016 96.04 188.12 96.04 188.12 96.04A4.048 4.048 0 0 0 184.12 100.2A58.16 58.16 0 0 0 203.448 144H180A4 4 0 0 0 176 148V156A4 4 0 0 0 180 160H220A4 4 0 0 0 224 156zM16 240H240A16 16 0 0 0 256 224V208ANaN NaN NaN 0 0 256 208H0ANaN NaN NaN 0 0 0 208V224A16 16 0 0 0 16 240zM0 47.304H256ANaN NaN NaN 0 0 256 47.304V31.304A16 16 0 0 0 240 15.304H16A16 16 0 0 0 0 31.304V47.304ANaN NaN NaN 0 0 0 47.304z" />
    <glyph glyph-name="casino-chip"
      unicode="&#xEA36;"
      horiz-adv-x="256" d="M128 256A128 128 0 1 1 256 128A128.152 128.152 0 0 1 128 256zM178.088 28L169.064 49.8A8 8 0 0 1 158.608 54.128A79.44 79.44 0 0 0 97.384 54.128A8 8 0 0 1 86.928 49.8L77.904 28A112.592 112.592 0 0 0 28 77.912L49.8 86.936A8 8 0 0 1 54.128 97.392A79.44 79.44 0 0 0 54.128 158.616A8 8 0 0 1 49.8 169.072L28 178.096A112.592 112.592 0 0 0 77.912 228L86.936 206.2A8 8 0 0 1 97.392 201.872A79.44 79.44 0 0 0 158.616 201.872A8 8 0 0 1 169.072 206.2L178.096 228A112.632 112.632 0 0 0 228 178.088L206.2 169.064A8 8 0 0 1 201.872 158.608A79.44 79.44 0 0 0 201.872 97.384A8 8 0 0 1 206.2 86.928L228 77.904A112.632 112.632 0 0 0 178.088 28zM128 192A64 64 0 1 1 192 128A64 64 0 0 1 128 192zM155.072 125.6L130.76 97.24A3.632 3.632 0 0 0 125.24 97.24L100.928 125.6A3.64 3.64 0 0 0 100.928 130.336L125.24 158.696A3.632 3.632 0 0 0 130.76 158.696L155.072 130.4A3.64 3.64 0 0 0 155.072 125.6z" />
    <glyph glyph-name="dice-2"
      unicode="&#xEA37;"
      horiz-adv-x="256" d="M208 240H48A32 32 0 0 1 16 208V48A32 32 0 0 1 48 16H208A32 32 0 0 1 240 48V208A32 32 0 0 1 208 240zM68 48A20 20 0 1 0 88 68A20 20 0 0 0 68 48zM68 168A20 20 0 1 0 88 188A20 20 0 0 0 68 168zM128 108A20 20 0 1 0 148 128A20 20 0 0 0 128 108zM188 48A20 20 0 1 0 208 68A20 20 0 0 0 188 48zM188 168A20 20 0 1 0 208 188A20 20 0 0 0 188 168z" />
    <glyph glyph-name="spades-suit"
      unicode="&#xEA38;"
      horiz-adv-x="256" d="M222.776 153.928L222.72 153.992L133.76 246.4A8.24 8.24 0 0 1 122.232 246.4L33.216 153.928A62.728 62.728 0 0 1 116.616 60.752A50.4 50.4 0 0 0 91.56 22.656A8 8 0 0 1 96 8H160A8 8 0 0 1 164.44 22.656A50.4 50.4 0 0 0 139.392 60.744A62.056 62.056 0 0 1 177.104 48A62.744 62.744 0 0 1 222.776 153.928z" />
    <glyph glyph-name="diamonds-suits"
      unicode="&#xEA39;"
      horiz-adv-x="256" d="M230.248 133L134.248 253A8.272 8.272 0 0 1 121.752 253L25.752 133A8 8 0 0 1 25.752 123L121.752 3A8 8 0 0 1 134.248 3L230.248 123A8 8 0 0 1 230.248 133z" />
    <glyph glyph-name="hearts-suit"
      unicode="&#xEA3A;"
      horiz-adv-x="256" d="M180.888 232A66.352 66.352 0 0 1 128 205.912A66.352 66.352 0 0 1 75.112 232A66.968 66.968 0 0 1 26.4 118.896L122.232 19.344A8 8 0 0 1 133.768 19.344L229.6 118.896L229.656 118.96A66.96 66.96 0 0 1 180.888 232z" />
    <glyph glyph-name="clubs-suit"
      unicode="&#xEA3B;"
      horiz-adv-x="256" d="M184 160A55.856 55.856 0 0 1 173.08 158.912A56 56 0 1 1 82.92 158.912A56 56 0 1 1 118.4 72.632C115.112 41.912 106.704 32.72 91.6 22.656A8 8 0 0 1 96 8H160A8 8 0 0 1 164.44 22.656C149.336 32.72 140.928 41.912 137.64 72.632A56 56 0 1 1 184 160z" />
    <glyph glyph-name="row-table"
      unicode="&#xEA3C;"
      horiz-adv-x="256" d="M216 248H40A32 32 0 0 1 8 216V40A32 32 0 0 1 40 8H216A32 32 0 0 1 248 40V216A32 32 0 0 1 216 248zM88 160H232V104H88zM72 104H24V160H72zM24 40V88H72V24H40A16 16 0 0 0 24 40zM216 24H88V88H232V40A16 16 0 0 0 216 24z" />
    <glyph glyph-name="scooter"
      unicode="&#xEA3D;"
      horiz-adv-x="256" d="M28 0A28 28 0 1 0 56 28A28 28 0 0 0 28 0zM28 40A12 12 0 1 1 40 28A12 12 0 0 1 28 40zM228 0A28 28 0 1 0 256 28A28 28 0 0 0 228 0zM228 40A12 12 0 1 1 240 28A12 12 0 0 1 228 40zM201.368 249.168A8 8 0 0 1 193.456 256H160A8 8 0 0 1 160 240H186.552L207.6 98.128L182 64H75.832A60.064 60.064 0 0 1 28 88A8 8 0 0 1 28 72A44.152 44.152 0 0 0 71.824 31.392A8 8 0 0 1 79.824 24H168A8 8 0 0 1 174.4 27.2L222.4 91.2A8 8 0 0 1 223.912 97.168z" />
    <glyph glyph-name="spa-rocks"
      unicode="&#xEA3E;"
      horiz-adv-x="256" d="M206.704 73.504C184.128 61.984 146.72 56 95.272 56A278.32 278.32 0 0 0 34.936 61.6A26.736 26.736 0 0 1 24 40C24 13.464 58.992 0 128 0C209.344 0 256 14.576 256 40C256 55.48 238.608 66.912 206.704 73.504zM202.96 126.48A276.728 276.728 0 0 0 138.08 120C92.696 120 69.936 130.464 58.664 142.216C11.2 137.048 0 121.472 0 108C0 91.576 16.528 72 95.272 72C170.864 72 216 85.456 216 108A22.4 22.4 0 0 1 202.96 126.48zM174.456 198.16A69.696 69.696 0 0 0 120 176A77.52 77.52 0 0 0 76.92 188A23.488 23.488 0 0 1 64 168C64 148 91.688 136 138.08 136C197.36 136 234.184 148.264 234.184 168C234.184 183.296 212 194.072 174.456 198.16zM120 192C93.088 192 72 206.056 72 224S93.088 256 120 256S168 241.944 168 224S146.912 192 120 192z" />
    <glyph glyph-name="palm-tree"
      unicode="&#xEA3F;"
      horiz-adv-x="256" d="M207.784 191.472A84.432 84.432 0 0 1 167.2 204.672L211.312 224.72A8 8 0 0 1 212.864 238.32C211.472 239.424 178.344 264.408 148.8 252.8C133.928 246.96 123.2 233.192 116.608 212A48.336 48.336 0 0 1 86.88 230.12C56.168 235.176 27.576 206.92 26.376 205.688A8 8 0 0 1 31.28 192L74.68 188.056A71.064 71.064 0 0 1 41.168 160.568C30.6 142.848 30.376 120.168 40.504 93.152A8 8 0 0 1 46.904 88.048A7.824 7.824 0 0 1 48 88A8 8 0 0 1 54.4 91.2L122.16 181.552L228 121.056A8 8 0 0 1 232 120A8 8 0 0 1 240 128.664C237.6 157.512 226.736 178.648 207.784 191.472zM210.768 12.8A103.016 103.016 0 0 1 144.584 52.536A185.2 185.2 0 0 1 152 104A184.992 184.992 0 0 1 146.272 149.352L126.488 160.656L126.264 160.36A169.656 169.656 0 0 0 136 104A168.912 168.912 0 0 0 128.32 54.024L128 54.024A103.136 103.136 0 0 1 45.232 12.8A8 8 0 0 1 51.632 0H204.432A8 8 0 0 1 210.832 12.8z" />
    <glyph glyph-name="hair-towel"
      unicode="&#xEA40;"
      horiz-adv-x="256" d="M232 148A60.072 60.072 0 0 1 172 208C127.28 208 114.64 183.408 103.48 161.704A8 8 0 1 0 89.256 169.016C101.176 192.216 117.512 224 172 224A75.512 75.512 0 0 0 202.464 217.6C192.72 235.64 172.04 256 128 256A48.048 48.048 0 0 1 80 208A8 8 0 0 0 64 208A63.496 63.496 0 0 0 73.712 241.728A94.648 94.648 0 0 1 24 160A91.776 91.776 0 0 1 47.336 99.384A8 8 0 0 1 53.336 96.68A7.88 7.88 0 0 1 55.736 97.048C93.336 108.792 106.6 132.784 116.824 152.616A94.944 94.944 0 0 0 197.288 101.344A8 8 0 0 1 210.408 99.216A73.224 73.224 0 0 1 232 148zM204.584 80.672H204.584A24.272 24.272 0 0 0 200.584 81.008A23.92 23.92 0 0 0 182.736 94.68A78.6 78.6 0 0 1 125.936 135.64A108.04 108.04 0 0 0 60.528 81.776A23.632 23.632 0 0 0 53.328 80.68A24 24 0 0 0 46.128 81.92C55.472 35.576 89.208 0 128 0C166.192 0 200 35.344 209.6 81.232A23.632 23.632 0 0 0 204.584 80.672z" />
    <glyph glyph-name="jacuzzi"
      unicode="&#xEA41;"
      horiz-adv-x="256" d="M155.344 160A8 8 0 0 0 148.824 172.624A16.048 16.048 0 0 1 146.4 194.312A32 32 0 0 0 142.152 236.624A8 8 0 0 0 155.2 227.376A16.048 16.048 0 0 1 157.6 205.688A32 32 0 0 0 161.848 163.376A8 8 0 0 0 155.344 160zM203.344 144A8 8 0 0 0 196.824 156.624A16.048 16.048 0 0 1 194.4 178.312A32 32 0 0 0 190.152 220.624A8 8 0 0 0 203.2 211.376A16.048 16.048 0 0 1 205.6 189.688A32 32 0 0 0 209.848 147.376A8 8 0 0 0 203.344 144zM56 192A32 32 0 1 0 88 224A32 32 0 0 0 56 192zM117.184 136L79.2 174C79.024 174.208 78.84 174.424 78.64 174.624A32 32 0 0 1 24 152V136zM256 104V112A8 8 0 0 1 248 120H8A8 8 0 0 1 0 112V104zM0 88V32A32 32 0 0 1 32 0H224A32 32 0 0 1 256 32V88z" />
    <glyph glyph-name="body-cream"
      unicode="&#xEA42;"
      horiz-adv-x="256" d="M234.688 68.568A23.92 23.92 0 0 0 219.912 23.096A23.928 23.928 0 0 0 172.088 23.096A23.92 23.92 0 0 0 157.312 68.568A23.92 23.92 0 0 0 196 96.672A23.92 23.92 0 0 0 234.688 68.568zM196 36A20 20 0 1 1 176 56A20 20 0 0 1 196 36zM127.52 33.752A39.392 39.392 0 0 0 137.832 74.896A38.752 38.752 0 0 0 137.592 87.128A44.352 44.352 0 0 0 141.064 98.888A228.8 228.8 0 0 0 104 96C50.296 96 16 112.576 16 124H16C16 130.4 27.384 139.2 49.184 145.248A39.632 39.632 0 0 1 48 136A8 8 0 0 1 64 136A24 24 0 0 0 88 160H116A43.608 43.608 0 0 1 148.568 174.528A28 28 0 0 0 160 152A27 27 0 0 0 156.872 139.648A8 8 0 1 1 171.104 132.352A45.768 45.768 0 0 1 174.104 139.888C187.12 134.112 192 127.928 192 124V118.984A40.976 40.976 0 0 0 196 117.152A39.744 39.744 0 0 0 208 121.2V124C208 137 196.48 148.432 175.672 156.488A44 44 0 0 1 149.656 192.272A8 8 0 0 1 139.656 189.192A27.816 27.816 0 0 0 116 176H88A39.832 39.832 0 0 1 59.584 164.088L56.928 163.552C20.752 156.24 0 141.832 0 124V44C0 15.424 53.6 0 104 0A230.912 230.912 0 0 1 159.8 6.592H159.8A39.336 39.336 0 0 0 127.52 33.752zM227.096 224A103.944 103.944 0 0 1 51.624 178.784C51.768 178.784 51.888 178.856 52.032 178.88A55.432 55.432 0 0 0 72.544 189.6A87.936 87.936 0 0 0 234.872 122.456C234.28 120.792 233.448 119.256 232.76 117.592A40.56 40.56 0 0 0 238.36 114.216A39.928 39.928 0 0 0 245.752 107.176A103.864 103.864 0 0 1 227.096 224z" />
    <glyph glyph-name="bamboo"
      unicode="&#xEA43;"
      horiz-adv-x="256" d="M152 80L152 128L152 176L104 176L104 128L104 80L152 80zM152 192V248A8 8 0 0 1 144 256H112A8 8 0 0 1 104 248V192zM104 64V8A8 8 0 0 1 112 0H144A8 8 0 0 1 152 8V64zM195.456 184A72.072 72.072 0 0 1 244 252A4 4 0 0 1 240 256A72 72 0 0 1 240 112A4 4 0 0 1 244 116A72.072 72.072 0 0 1 195.456 184zM60.544 184A72.072 72.072 0 0 0 12 252A4 4 0 0 0 16 256A72 72 0 0 0 16 112A4 4 0 0 0 12 116A72.072 72.072 0 0 0 60.544 184zM240 0A72.08 72.08 0 0 0 168 72A4 4 0 0 0 172 76A72.08 72.08 0 0 0 244 4A4 4 0 0 0 240 0z" />
    <glyph glyph-name="massage"
      unicode="&#xEA44;"
      horiz-adv-x="256" d="M76 200A28 28 0 1 0 104 228A28 28 0 0 0 76 200zM204 96A28 28 0 1 0 232 124A28 28 0 0 0 204 96zM40 48L40 0L60 0L64 48L40 48zM243.576 82.736L207.096 68.216L160.968 114.344H160.968A19.936 19.936 0 0 1 146.848 120.192H74.848A19.944 19.944 0 0 1 58.768 112H0V96H156.688L202.344 50.344A8 8 0 0 1 211.576 48.84L250.736 68.424zM93.72 189.6A7.936 7.936 0 0 1 89.52 191.856A3.472 3.472 0 0 1 89.104 191.928A7.52 7.52 0 0 1 87.848 192H63.048A16 16 0 0 1 47.2 178.312L39.88 128H52.264A35.648 35.648 0 0 0 74.832 136.176H89.16L92.656 163.256L136 124.688L147.312 136zM0 80.712H146.744A8 8 0 0 0 152.4 78.368L217.112 13.656A8 8 0 1 0 205.8 2.344L143.4 64.744H0z" />
    <glyph glyph-name="slippers"
      unicode="&#xEA45;"
      horiz-adv-x="256" d="M109.536 102.032A216.688 216.688 0 0 0 106.656 137.768A167.448 167.448 0 0 0 109.456 171.048A142.336 142.336 0 0 1 112 198.592C112 220.6 106.752 236.584 96.4 246.112A40.904 40.904 0 0 1 63.856 255.784C29.84 252.928 0 223.656 0 193.128A131.6 131.6 0 0 1 11.392 143.36C13.952 136.616 16.592 129.648 19.016 121.76A252.7040000000001 252.7040000000001 0 0 0 26.584 89.024A151.432 151.432 0 0 1 34.12 59.16A40 40 0 0 1 112 71.952A171.72 171.72 0 0 1 109.536 102.032zM65.192 239.84C66.488 239.944 67.728 240 68.928 240A23.44 23.44 0 0 0 85.56 234.328A41.96 41.96 0 0 0 95.776 205.368A110.168 110.168 0 0 1 16 192.8C16 192.904 16 193 16 193.112C16 215.416 39.448 237.68 65.192 239.84zM96 72A24 24 0 0 0 49.168 64.552A137.808 137.808 0 0 0 42.336 91.752A264.6720000000001 264.6720000000001 0 0 1 34.336 126.384C33.976 127.552 33.6 128.552 33.232 129.688A59.704 59.704 0 0 0 90.712 140.952C90.712 139.88 90.712 138.872 90.712 137.752A232.992 232.992 0 0 1 93.768 99.68A156.936 156.936 0 0 0 96 72.096zM192.144 223.784A40.8 40.8 0 0 1 159.608 214.112C149.256 204.584 144 188.6 144 166.592A142.336 142.336 0 0 1 146.536 139.048A167.448 167.448 0 0 0 149.336 105.768A216.688 216.688 0 0 0 146.456 70.032A171.72 171.72 0 0 1 144 39.952A40 40 0 0 1 221.784 26.848A152.576 152.576 0 0 1 229.416 56.992A252.7040000000001 252.7040000000001 0 0 0 236.984 89.728C239.384 97.648 242.048 104.616 244.608 111.328A131.6 131.6 0 0 1 256 161.128C256 191.656 226.16 220.928 192.144 223.784zM187.072 208C188.272 208 189.472 207.944 190.808 207.84C216.552 205.68 240 183.416 240 161.128C240 161.016 240 160.92 240 160.816A110.168 110.168 0 0 1 160.248 173.368A41.96 41.96 0 0 0 170.464 202.328A23.44 23.44 0 0 0 187.072 208zM221.688 94.4A264.6720000000001 264.6720000000001 0 0 1 213.688 59.768A138.712 138.712 0 0 0 206.76 32.264A24 24 0 0 0 160 40V40.096A156.936 156.936 0 0 0 162.288 67.696A232.992 232.992 0 0 1 165.344 105.768C165.344 106.904 165.344 107.912 165.344 108.968A59.704 59.704 0 0 0 222.824 97.704C222.4 96.584 222.048 95.584 221.688 94.4z" />
    <glyph glyph-name="sauna"
      unicode="&#xEA46;"
      horiz-adv-x="256" d="M128 192A32 32 0 1 0 160 224A32 32 0 0 0 128 192zM27.344 152A8 8 0 0 0 20.392 163.944A27.504 27.504 0 0 1 17.776 194.968A43.44 43.44 0 0 0 13.688 243.944A8 8 0 0 0 27.608 236.056A27.52 27.52 0 0 1 30.224 205.024A43.408 43.408 0 0 0 34.312 156.056A8 8 0 0 0 27.344 152zM235.344 152A8 8 0 0 0 228.392 163.944A27.504 27.504 0 0 1 225.776 194.968A43.44 43.44 0 0 0 221.688 243.944A8 8 0 0 0 235.608 236.056A27.52 27.52 0 0 1 238.224 205.024A43.408 43.408 0 0 0 242.312 156.056A8 8 0 0 0 235.344 152zM100 0L96 76A12 12 0 0 0 120 76V0zM136 0V76A12 12 0 0 0 160 76L156 0M80 64H16A8 8 0 0 1 8 56H8A8 8 0 0 1 16 48H80zM176 64V48H240A8 8 0 0 1 248 56H248A8 8 0 0 1 240 64zM178.128 167.864A24 24 0 0 1 155.456 184H100.544A24 24 0 0 1 77.872 167.864L47.152 79.296L65.76 72L88 128.8V95.392A27.592 27.592 0 0 0 108 104A27.88 27.88 0 0 0 128 95.536A27.88 27.88 0 0 0 148 104A27.592 27.592 0 0 0 168 95.432V128.8L190.24 72L208.848 79.296z" />
    <glyph glyph-name="incense"
      unicode="&#xEA47;"
      horiz-adv-x="256" d="M216 124.168V124A30.76 30.76 0 0 0 211.448 107.736A11.456 11.456 0 0 0 216 100C216 88.584 181.72 72 128 72S40 88.584 40 100A11.456 11.456 0 0 0 44.552 107.736A30.76 30.76 0 0 0 40 124V124.168A29.92 29.92 0 0 1 24 100V40C24 13.744 76.32 0 128 0S232 13.744 232 40V100A29.92 29.92 0 0 1 216 124.168zM161.816 171.256L171.912 238.824A8 8 0 1 1 156.088 241.176L145.28 168.848A142.784 142.784 0 0 1 161.816 171.256zM128 168C130.824 168 133.384 168.136 136 168.24V248A8 8 0 0 1 120 248V168.24C122.616 168.136 125.176 168 128 168zM110.728 168.848L99.912 241.176A8 8 0 1 1 84.088 238.824L94.184 171.256A142.68 142.68 0 0 1 110.728 168.848zM179.952 184.328L177.504 167.944A18.168 18.168 0 0 0 183.784 164C180.864 160.192 161.976 152 128 152S75.136 160.192 72.216 164A18.168 18.168 0 0 0 78.496 167.944L76.048 184.328C64.392 180 56 173.504 56 164V124C56 101.896 101.256 96 128 96S200 101.896 200 124V164C200 173.504 191.608 180 179.952 184.328z" />
    <glyph glyph-name="scented-candle"
      unicode="&#xEA48;"
      horiz-adv-x="256" d="M187.888 153.928A64.584 64.584 0 0 0 180.112 139.24L182.968 138.64C216.656 131.568 232 119.872 232 112C232 98.952 191.488 80 128 80S24 98.952 24 112C24 119.872 39.344 131.568 73.032 138.64L75.888 139.24A64.584 64.584 0 0 0 68.112 153.928C29.904 145.6 8 130.4 8 112V48C8 16.8 69.832 0 128 0S248 16.8 248 48V112C248 130.4 226.096 145.6 187.888 153.928zM117.712 254.856A44 44 0 0 0 104.536 220C91.696 207.416 80 195.144 80 176A47.864 47.864 0 0 1 104 134.616S96 160 128 184C160 160 152 134.616 152 134.616A47.864 47.864 0 0 1 176 176C176 197.744 165.464 232.464 117.712 254.856zM128 104A8 8 0 0 0 120 112V144A8 8 0 0 0 136 144V112A8 8 0 0 0 128 104z" />
    <glyph glyph-name="lotus-flower"
      unicode="&#xEA49;"
      horiz-adv-x="256" d="M128 48A8 8 0 0 0 122.496 50.192A135.624 135.624 0 0 0 122.496 247.384A8 8 0 0 0 133.504 247.384A135.624 135.624 0 0 0 133.504 50.192A8 8 0 0 0 128 48zM95.544 36.056A135.84 135.84 0 0 0 21.6 83.312A84.344 84.344 0 0 1 5.944 70.824A8 8 0 0 1 2.488 64.232V64A8 8 0 0 1 4.968 58.2A83.688 83.688 0 0 1 66.728 24.2C68.712 24.072 70.68 24 72.656 24A83.048 83.048 0 0 1 109.232 32.688zM64 148.8A155.408 155.408 0 0 0 64.944 165.456A119.2 119.2 0 0 1 16 176A8 8 0 0 1 8 168A120.128 120.128 0 0 1 99.368 51.592A150.192 150.192 0 0 0 64 148.8zM160.456 36.056A135.84 135.84 0 0 1 234.4 83.312A84.344 84.344 0 0 0 250.088 70.824A8 8 0 0 0 253.544 64.232V64A8 8 0 0 0 251.064 58.2A83.688 83.688 0 0 0 189.304 24.2C187.32 24.072 185.352 24 183.376 24A83.048 83.048 0 0 0 146.8 32.688zM192 148.8A155.408 155.408 0 0 1 191.056 165.456A119.2 119.2 0 0 0 240 176A8 8 0 0 0 248 168A120.128 120.128 0 0 0 156.632 51.592A150.192 150.192 0 0 1 192 148.8z" />
    <glyph glyph-name="gooey-anim"
      unicode="&#xEA4A;"
      horiz-adv-x="256" d="M8 128A32 32 0 0 1 72 128A32 32 0 0 1 8 128M8 128A32 32 0 0 1 72 128A32 32 0 0 1 8 128M96 128A32 32 0 0 1 160 128A32 32 0 0 1 96 128M184 128A32 32 0 0 1 248 128A32 32 0 0 1 184 128" />
    <glyph glyph-name="bars-anim-2"
      unicode="&#xEA4B;"
      horiz-adv-x="256" d="M0 256H256V0H0V256zM16 88H48V40H16V88zM0 256H256V0H0V256zM80 88H112V40H80V88zM0 256H256V0H0V256zM144 88H176V40H144V88zM0 256H256V0H0V256zM208 88H240V40H208V88z" />
    <glyph glyph-name="heart-anim"
      unicode="&#xEA4C;"
      horiz-adv-x="256" d="M208.664 184.632A52.344 52.344 0 0 1 128 176.528A52.352 52.352 0 1 1 47.36 110.584L128 29.944L208.648 110.584A52.352 52.352 0 0 1 208.648 184.624zM0 128A128 128 0 0 1 256 128A128 128 0 0 1 0 128" />
    <glyph glyph-name="clock-anim"
      unicode="&#xEA4D;"
      horiz-adv-x="256" d="M128 0A128 128 0 1 0 256 128A128.152 128.152 0 0 0 128 0zM128 240A112 112 0 1 1 240 128A112.12 112.12 0 0 1 128 240zM128 120A8 8 0 0 0 120 128V208A8 8 0 0 0 136 208V128A8 8 0 0 0 128 120zM136 192V128A8 8 0 0 0 120 128V192A8 8 0 0 0 136 192z" />
    <glyph glyph-name="dots-anim-7"
      unicode="&#xEA4E;"
      horiz-adv-x="256" d="M8 200A48 48 0 0 1 104 200A48 48 0 0 1 8 200M152 200A48 48 0 0 1 248 200A48 48 0 0 1 152 200M152 56A48 48 0 0 1 248 56A48 48 0 0 1 152 56M8 56A48 48 0 0 1 104 56A48 48 0 0 1 8 56" />
    <glyph glyph-name="bars-anim-3"
      unicode="&#xEA4F;"
      horiz-adv-x="256" d="M240 112H16A16 16 0 0 0 16 144H240A16 16 0 0 0 240 112zM240 112H16A16 16 0 0 0 16 144H240A16 16 0 0 0 240 112zM240 112H16A16 16 0 0 0 16 144H240A16 16 0 0 0 240 112z" />
    <glyph glyph-name="squares-anim-2"
      unicode="&#xEA50;"
      horiz-adv-x="256" d="M144 248H240A8 8 0 0 0 248 240V144A8 8 0 0 0 240 136H144A8 8 0 0 0 136 144V240A8 8 0 0 0 144 248zM144 120H240A8 8 0 0 0 248 112V16A8 8 0 0 0 240 8H144A8 8 0 0 0 136 16V112A8 8 0 0 0 144 120zM16 120H112A8 8 0 0 0 120 112V16A8 8 0 0 0 112 8H16A8 8 0 0 0 8 16V112A8 8 0 0 0 16 120zM16 248H112A8 8 0 0 0 120 240V144A8 8 0 0 0 112 136H16A8 8 0 0 0 8 144V240A8 8 0 0 0 16 248z" />
    <glyph glyph-name="dots-anim-6"
      unicode="&#xEA51;"
      horiz-adv-x="256" d="M8 128A24 24 0 0 1 56 128A24 24 0 0 1 8 128M104 128A24 24 0 0 1 152 128A24 24 0 0 1 104 128M200 128A24 24 0 0 1 248 128A24 24 0 0 1 200 128" />
    <glyph glyph-name="slideshow-anim"
      unicode="&#xEA52;"
      horiz-adv-x="256" d="M-88 224H-8V32H-88V224zM0 224H80V32H0V224zM88 224H168V32H88V224zM176 224H256V32H176V224z" />
    <glyph glyph-name="dots-anim-5"
      unicode="&#xEA53;"
      horiz-adv-x="256" d="M88 208A40 40 0 0 1 168 208A40 40 0 0 1 88 208M168 128A40 40 0 0 1 248 128A40 40 0 0 1 168 128M88 48A40 40 0 0 1 168 48A40 40 0 0 1 88 48M8 128A40 40 0 0 1 88 128A40 40 0 0 1 8 128" />
    <glyph glyph-name="dots-anim-4"
      unicode="&#xEA54;"
      horiz-adv-x="256" d="M0 128A40 40 0 0 1 80 128A40 40 0 0 1 0 128M88 128A40 40 0 0 1 168 128A40 40 0 0 1 88 128M176 128A40 40 0 0 1 256 128A40 40 0 0 1 176 128" />
    <glyph glyph-name="hair-clipper"
      unicode="&#xEA55;"
      horiz-adv-x="256" d="M192 256A8 8 0 0 1 184 248V232H168V248A8 8 0 0 1 152 248V232H136V248A8 8 0 0 1 120 248V232H104V248A8 8 0 0 1 88 248V232H72V248A8 8 0 0 1 56 248V216H200V248A8 8 0 0 1 192 256zM56 200V74.488A73.64 73.64 0 0 1 123.064 0.168A72.072 72.072 0 0 1 200 72V200zM127.64 56A16 16 0 1 0 143.64 72A16 16 0 0 0 127.64 56zM184 152H72V184H184z" />
    <glyph glyph-name="razor"
      unicode="&#xEA56;"
      horiz-adv-x="256" d="M249.544 157.432L157.432 249.544A8.232 8.232 0 0 1 146.12 249.544L116.8 220.192A8 8 0 0 1 116.8 208.88L144.216 181.472A34.736 34.736 0 0 0 132.56 159.2L108.688 135.328L104.688 139.328A8 8 0 0 1 93.376 139.328L17.512 63.456A32.488 32.488 0 0 1 63.456 17.512L139.312 93.376A8 8 0 0 1 139.312 104.688L135.312 108.688L159.2 132.56A34.736 34.736 0 0 0 181.488 144.184L208.88 116.8A8 8 0 0 1 220.192 116.8L249.544 146.144A8 8 0 0 1 249.544 157.456zM214.536 133.744L133.736 214.544L151.776 232.584L232.576 151.784z" />
    <glyph glyph-name="beard"
      unicode="&#xEA57;"
      horiz-adv-x="256" d="M248 256H244A8 8 0 0 1 236.112 249.32A192.328 192.328 0 0 0 191.504 150.848L188.664 160.8A32.128 32.128 0 0 1 157.896 184H98.104A32.128 32.128 0 0 1 67.336 160.8L64.496 150.856A192.328 192.328 0 0 0 19.888 249.32A8 8 0 0 1 12 256H8A8 8 0 0 1 0 248V127.2A72.144 72.144 0 0 1 16.688 81.112L81.848 2.904A8 8 0 0 1 88 0H168A8 8 0 0 1 174.144 2.872L239.312 81.08A72.144 72.144 0 0 1 256 127.2V248A8 8 0 0 1 248 256zM163.088 111.376A90.8 90.8 0 0 0 128 104A90.8 90.8 0 0 0 92.912 111.376A8 8 0 0 0 99.088 126.144A71.352 71.352 0 0 1 156.912 126.144A8 8 0 0 0 163.088 111.376z" />
    <glyph glyph-name="edge-razor"
      unicode="&#xEA58;"
      horiz-adv-x="256" d="M248 231.808H238.4A23.88 23.88 0 0 1 193.6 231.808H8A8 8 0 0 1 0 223.808V207.808A24 24 0 0 1 24 183.808H131.816A24 24 0 0 1 155.104 201.984L158.56 215.808H193.36A23.848 23.848 0 0 1 238.64 215.808H248A8 8 0 0 1 248 231.808zM216 215.448A8 8 0 1 0 224 223.448A8 8 0 0 0 216 215.448zM216 183.448A39.568 39.568 0 0 0 206.736 184.552A513.416 513.416 0 0 0 165.936 18.952A8 8 0 0 1 180.624 12.608A529.36 529.36 0 0 1 222.736 184.128A39.8 39.8 0 0 0 216 183.448z" />
    <glyph glyph-name="hair-gel"
      unicode="&#xEA59;"
      horiz-adv-x="256" d="M224 150.864V176A8 8 0 0 1 216 184H40A8 8 0 0 1 32 176V150.864A32 32 0 0 1 8 120V32A32 32 0 0 1 40 0H216A32 32 0 0 1 248 32V120A32 32 0 0 1 224 150.864zM192 48A8 8 0 0 0 184 40H72A8 8 0 0 0 64 48V104A8 8 0 0 0 72 112H184A8 8 0 0 0 192 104zM210.936 216.16A50.84 50.84 0 0 1 189 254.248A8 8 0 0 1 177.8 253.04A42.248 42.248 0 0 0 144 240H88A40.048 40.048 0 0 1 48 200H208.12A43.2 43.2 0 0 1 210.936 216.16z" />
    <glyph glyph-name="soap"
      unicode="&#xEA5A;"
      horiz-adv-x="256" d="M64 96A64 32 0 0 1 192 96A64 32 0 0 1 64 96M160 220A20 20 0 0 1 200 220A20 20 0 0 1 160 220M112 244A12 12 0 0 1 136 244A12 12 0 0 1 112 244M255.752 44.936A415.48 415.48 0 0 0 255.752 146.968A32.728 32.728 0 0 1 246.656 173.976A33.168 33.168 0 0 1 219.584 183.808A929.376 929.376 0 0 0 117.8 179.432A39.84 39.84 0 0 0 41 183.432C39.4 183.584 37.752 183.688 36.128 183.848A32.904 32.904 0 0 1 0.264 147.048A417.4719999999999 417.4719999999999 0 0 0 3.4 96A417.384 417.384 0 0 0 0.264 45.032A32.728 32.728 0 0 1 9.36 18.024A33.088 33.088 0 0 1 36.432 8.192A932.8 932.8 0 0 0 219.888 8.192A32.28 32.28 0 0 1 223.2 8A32.92 32.92 0 0 1 255.784 44.936zM128 48C83.144 48 48 69.088 48 96S83.144 144 128 144S208 122.912 208 96S172.856 48 128 48zM56 192A24 24 0 0 1 104 192A24 24 0 0 1 56 192" />
    <glyph glyph-name="mustache"
      unicode="&#xEA5B;"
      horiz-adv-x="256" d="M182.544 72A75.808 75.808 0 0 0 128 94.704A75.808 75.808 0 0 0 73.456 72C27.48 72 0 105.896 0 138.664A8 8 0 0 0 12.096 145.536C22.064 139.584 32.768 147.632 49.224 161.536C62.248 172.592 75.712 184 91.2 184A51.68 51.68 0 0 0 128 166.76A51.68 51.68 0 0 0 164.8 184C180.272 184 193.736 172.592 206.76 161.56C223.216 147.632 233.96 139.592 243.8880000000001 145.56A8 8 0 0 0 256 138.664C256 105.896 228.52 72 182.544 72z" />
    <glyph glyph-name="barbershop"
      unicode="&#xEA5C;"
      horiz-adv-x="256" d="M192 72H184V184H192A8 8 0 0 1 192 200H189.936A64.36 64.36 0 0 1 136 247.432V248A8 8 0 0 1 120 248V247.432A64.36 64.36 0 0 1 66.064 200H64A8 8 0 0 1 64 184H72V72H64A8 8 0 0 1 64 56H66.064A64.36 64.36 0 0 1 120 8.568V8A8 8 0 0 1 136 8V8.568A64.36 64.36 0 0 1 189.936 56H192A8 8 0 0 1 192 72zM139.312 72L168 100.688V72zM168 179.312L88 99.312V132.688L139.312 184H168zM116.688 184L88 155.312V184zM88 76.688L168 156.688V123.312L116.688 72H88z" />
    <glyph glyph-name="neck-duster"
      unicode="&#xEA5D;"
      horiz-adv-x="256" d="M203.384 239.248A174.144 174.144 0 0 1 162.096 252.432A6.76 6.76 0 0 1 161.08 252.88A7.36 7.36 0 0 1 159.568 252.88A180.888 180.888 0 0 1 52.616 239.248A8 8 0 0 1 48.528 229.128L87.504 127.8L65.96 63.2A48 48 0 0 1 111.496 0H144.504A48 48 0 0 1 190.04 63.2L168.496 127.824L207.472 229.128A8 8 0 0 1 203.384 239.248zM154.504 136H101.496L66.208 227.752A164.208 164.208 0 0 0 149.6 238.208L136.192 177.736A8 8 0 0 1 142.264 168.184A8.672 8.672 0 0 1 144 168A8 8 0 0 1 151.8 174.264L165.4 235.344A158.224 158.224 0 0 0 189.808 227.752z" />
    <glyph glyph-name="clear-data"
      unicode="&#xEA5E;"
      horiz-adv-x="256" d="M220.944 246.28A8 8 0 0 1 209.744 244.952L140.64 157.376A31.736 31.736 0 0 1 128 160A135.56 135.56 0 0 1 96.216 156.216C96.088 154.824 96 153.424 96 152A47.944 47.944 0 0 1 153.288 104.92C154.424 108.168 155.632 111.4 157.08 114.616A47.376 47.376 0 0 1 160 128A31.704 31.704 0 0 1 153.208 147.48L222.272 235.048A8 8 0 0 1 220.944 246.28zM184 88A8 8 0 0 0 184 104H248A8 8 0 0 0 248 88zM176 48A8 8 0 0 0 176 64H248A8 8 0 0 0 248 48zM248 8H192A8 8 0 1 0 192 24H248A8 8 0 0 0 248 8zM162.016 12A111.936 111.936 0 0 0 146.912 68A110.568 110.568 0 0 0 148.896 88.248C147.296 88.128 145.648 88 144 88A64.048 64.048 0 0 0 80.048 151.096C30.272 131.352 0 79.56 0 8A8 8 0 0 1 8 0H40.472A180.912 180.912 0 0 0 42.4 41.344A8 8 0 1 0 58.176 38.672A165.44 165.44 0 0 1 56.504 0H99.464A152.152 152.152 0 0 0 96.264 40.496A8.128 8.128 0 0 0 104.736 48A8 8 0 0 0 112.232 39.52A137.32 137.32 0 0 1 115.88 0H155.08A8 8 0 0 1 162 12z" />
    <glyph glyph-name="progress-2"
      unicode="&#xEA5F;"
      horiz-adv-x="256" d="M128 0A8 8 0 0 0 128 16A112 112 0 0 1 128 240A8 8 0 0 0 128 256A128 128 0 0 0 128 0zM8.496 110.04A8 8 0 0 0 0.496 117.376C0.24 120.888 0 124.416 0 128S0.24 135.112 0.528 138.624A8 8 0 1 0 16.48 137.296C16.224 134.216 16 131.136 16 128S16.224 121.784 16.48 118.704A8 8 0 0 0 9.168 110.064zM65.192 222.104A8 8 0 0 0 60.984 236.912A127.4 127.4 0 0 0 79.912 246.576A8 8 0 1 0 85.928 231.752A111.616 111.616 0 0 1 69.384 223.288A8 8 0 0 0 65.192 222.104zM20.968 174.064A8 8 0 0 0 13.832 185.672A128.896 128.896 0 0 0 24.984 203.76A8 8 0 1 0 37.864 194.272A113.16 113.16 0 0 1 28.112 178.456A8 8 0 0 0 20.968 174.064zM31.2 49.28A8 8 0 0 0 24.736 52.552A128.312 128.312 0 0 0 13.648 70.72A8 8 0 1 0 27.944 77.92A111.768 111.768 0 0 1 37.664 62.04A8 8 0 0 0 31.2 49.28zM82.76 8.888A7.928 7.928 0 0 0 79.736 9.488A128.936 128.936 0 0 0 60.8 19.2A8 8 0 0 0 69.208 32.8A112.296 112.296 0 0 1 85.808 24.272A8 8 0 0 0 82.784 8.864zM98.344 76.688L60.688 114.344A8 8 0 0 0 60.688 125.656L66.344 131.312A8 8 0 0 0 77.656 131.312L104 104.968L178.344 179.312A8 8 0 0 0 189.656 179.312L195.312 173.656A8 8 0 0 0 195.312 162.344L109.656 76.688A8 8 0 0 0 98.344 76.688z" />
    <glyph glyph-name="video-gallery-2"
      unicode="&#xEA60;"
      horiz-adv-x="256" d="M40 40A24 24 0 0 0 16 64V200H8A8 8 0 0 1 0 192V40A16 16 0 0 1 16 24H216A8 8 0 0 1 224 32V40zM240 232H48A16 16 0 0 1 32 216V72A16 16 0 0 1 48 56H240A16 16 0 0 1 256 72V216A16 16 0 0 1 240 232zM182.168 140.632L126.168 104.632A4 4 0 0 0 120 108V180A4 4 0 0 0 126.168 183.368L182.168 147.368A4 4 0 0 0 182.168 140.632z" />
    <glyph glyph-name="makeup-blush"
      unicode="&#xEA61;"
      horiz-adv-x="256" d="M241.64 186.656L229.64 174.76A112.368 112.368 0 1 0 174.76 229.64L186.656 241.64A128.336 128.336 0 1 1 241.64 186.656zM101.416 170.032L160 192L192 160L170.032 101.416A7.832 7.832 0 0 0 162.216 96.232A72 72 0 0 0 96.232 162.216A7.832 7.832 0 0 0 101.416 170.032zM205.752 151.104L185.008 95.808A23.936 23.936 0 0 0 162.792 80.2L160.952 80.272A87.544 87.544 0 0 0 80.28 160.952A23.888 23.888 0 0 0 95.808 185.016L151.104 205.752L162.68 217.44A96.248 96.248 0 1 1 217.44 162.68zM249.144 216.688A22.952 22.952 0 0 1 249.272 249.288H249.272A22.96 22.96 0 0 1 216.68 249.144L171.256 203.368L203.312 171.312" />
    <glyph glyph-name="hair-man"
      unicode="&#xEA62;"
      horiz-adv-x="256" d="M225.48 19.856L181.08 28.184A16 16 0 0 0 168 43.896L168 61.208C195.896 80.368 215.864 118.16 216 159.608C216 159.744 216 159.872 216 160.008H216C219.248 193.84 213.84 217.976 199.472 233.808C181.712 253.36 153.376 256 128 256S74.168 253.352 56.408 233.736C41.976 217.784 36.616 193.4 40 160C40 118.4 60 80.432 88 61.216L88 43.896A16 16 0 0 0 74.944 28.184L30.544 19.856A8 8 0 1 1 33.504 4.144L77.904 12.472A32 32 0 0 1 104 43.88V52.68A63.712 63.712 0 0 1 152 52.68V43.88A32 32 0 0 1 178.104 12.472L222.496 4.144A8 8 0 1 1 225.456 19.856zM128 64C91.832 64 58.888 106.176 56.256 154.688A24 24 0 0 0 79.88 176S126.56 176.064 127.88 176.176A44.04 44.04 0 0 1 164 201.96A51.816 51.816 0 0 1 199.792 154.76C197.504 106.64 164.368 64 128 64z" />
    <glyph glyph-name="hair-woman"
      unicode="&#xEA63;"
      horiz-adv-x="256" d="M240.424 92.408A216.8 216.8 0 0 0 232 152A104 104 0 0 1 123.816 255.912A105.6 105.6 0 0 1 24 149.712A217.992 217.992 0 0 0 15.584 92.416C9.128 67.28 4 47.44 24.944 8.232A8 8 0 0 1 32 4A7.92 7.92 0 0 1 33.672 4.176L70.696 12.12A32.144 32.144 0 0 1 96 43.4V56.432A64.96 64.96 0 0 1 160 56.432V43.408A32.144 32.144 0 0 1 185.296 12.128L222.328 4.184A7.936 7.936 0 0 1 231.056 8.24C252 47.44 246.872 67.28 240.424 92.408zM178.784 139.832L174.784 133.832A32 32 0 0 1 178.232 94.112C165.36 76.4 147.768 64 128 64C107.84 64 89.936 76.888 77 95.152A32 32 0 0 1 77.8 129.368L64.232 152A84 84 0 0 1 145.472 214.56L176.456 178.4A32 32 0 0 0 178.784 139.832z" />
    <glyph glyph-name="nail-file"
      unicode="&#xEA64;"
      horiz-adv-x="256" d="M246.4 246.456A32.736 32.736 0 0 1 200.104 246.456L200 246.336L68.176 114.496L114.472 68.192L246.4 200.168A32.744 32.744 0 0 1 246.4 246.456zM56.864 103.2L9.6 55.88A32.736 32.736 0 0 1 55.88 9.6L103.2 56.88zM32 20A12 12 0 1 0 44 32A12 12 0 0 0 32 20z" />
    <glyph glyph-name="eyeliner"
      unicode="&#xEA65;"
      horiz-adv-x="256" d="M64 152V248A8 8 0 0 0 80 248V152zM109.928 93.368A8 8 0 0 1 104 96H96V128A8 8 0 0 1 88 136H56A8 8 0 0 1 48 128V96H40A8 8 0 0 1 32 87.2L40 7.2A8 8 0 0 1 48 0H96A8 8 0 0 1 104 7.2L112 87.2A8 8 0 0 1 109.928 93.368zM222.008 48L216 168.4A8 8 0 0 1 208 176H160A8 8 0 0 1 152 168.4L145.992 48zM145.192 32L144 8.4A8 8 0 0 1 152 0H216A8 8 0 0 1 224 8.4L222.808 32z" />
    <glyph glyph-name="makeup-brush"
      unicode="&#xEA66;"
      horiz-adv-x="256" d="M108.72 152L5.856 34.144A20 20 0 0 1 34.144 5.856L152 108.72zM160 256H160A8 8 0 0 1 152.616 251.08L117.208 166.104L127.336 156L153.736 189.024A8 8 0 0 0 166.232 179.024L138.704 144.624L166.088 117.24L251.064 152.648A8 8 0 0 1 256 160H256A96 96 0 0 1 160 256z" />
    <glyph glyph-name="eyelash"
      unicode="&#xEA67;"
      horiz-adv-x="256" d="M255.6 96A8 8 0 0 1 245.496 101.096A106.664 106.664 0 0 0 204.992 96.088A82.4 82.4 0 0 1 252.288 145.304A8 8 0 1 1 237.192 150.6A66.032 66.032 0 0 0 164.712 106.992C162.312 108.2 159.84 109.392 157.512 110.808C156.712 111.28 155.912 111.656 155.112 112.112A76.144 76.144 0 0 1 204.984 176.448A8 8 0 0 1 189.064 178.048A60.32 60.32 0 0 0 128.784 123.488H128.48C125.24 124.432 121.968 125.208 118.688 125.888A72.8 72.8 0 0 1 147.432 184A8 8 0 0 1 131.432 184A56.864 56.864 0 0 0 86.4 128.176L86.296 128.176L85.944 128.104L84.768 127.88Q80.424 127.536 76.136 126.864A65.904 65.904 0 0 1 85.776 161.008A66.968 66.968 0 0 1 84.976 171.408A8 8 0 1 1 69.168 168.92A50.752 50.752 0 0 0 69.784 161.032A50.08 50.08 0 0 0 44.4 117.504C42.76 116.76 41.2 115.904 39.6 115.104C39.6 115.232 39.6 115.36 39.6 115.488A53.872 53.872 0 0 1 33.112 141.088A8 8 0 1 1 19.056 133.448A37.832 37.832 0 0 0 23.6 115.48A37.456 37.456 0 0 0 22.8 107.88L22.8 107.68A36.92 36.92 0 0 0 21.728 104A122.672 122.672 0 0 1 1.928 85.6A8 8 0 0 1 14.072 75.2A106.088 106.088 0 0 0 50.776 102.784C51.008 102.888 51.24 102.936 51.464 103.056S51.704 103.2 51.824 103.272A106.128 106.128 0 0 0 84.96 111.808H85A8.176 8.176 0 0 1 86.304 111.912L86.904 112A105.944 105.944 0 0 0 149.256 97.08C151.92 95.48 154.68 94.136 157.432 92.76A7.792 7.792 0 0 1 158.808 92.032A122.232 122.232 0 0 1 250.504 85.88A8 8 0 0 1 255.6 96z" />
    <glyph glyph-name="nail-polish-2"
      unicode="&#xEA68;"
      horiz-adv-x="256" d="M160 160H96V248A8 8 0 0 0 104 256H152A8 8 0 0 0 160 248zM192 144H64A8 8 0 0 1 56 136V32A32 32 0 0 1 88 0H168A32 32 0 0 1 200 32V136A8 8 0 0 1 192 144zM159.888 46.688A8 8 0 0 0 152 40H104A8 8 0 0 0 96.112 46.688L88.112 94.688A8 8 0 0 0 96 104H160A8 8 0 0 0 167.888 94.688z" />
    <glyph glyph-name="makeup-foundation"
      unicode="&#xEA69;"
      horiz-adv-x="256" d="M152 224V240H184A8 8 0 0 1 184 256H112A8 8 0 0 1 104 248V224zM192 176H168V200A8 8 0 0 1 160 208H96A8 8 0 0 1 88 200V176H64A8 8 0 0 1 56 168V8A8 8 0 0 1 64 0H192A8 8 0 0 1 200 8V168A8 8 0 0 1 192 176zM184 56A24 24 0 0 0 160 32H96A24 24 0 0 0 72 56V152A8 8 0 0 0 80 160H176A8 8 0 0 0 184 152zM95.984 136H160.016A7.984 7.984 0 0 0 168 128.016V71.984A7.984 7.984 0 0 0 160.016 64H95.984A7.984 7.984 0 0 0 88 71.984V128.016A7.984 7.984 0 0 0 95.984 136z" />
    <glyph glyph-name="makeup-cream"
      unicode="&#xEA6A;"
      horiz-adv-x="256" d="M152 256A103.944 103.944 0 0 1 51.56 178.584C57.296 179.84 63.216 180.856 69.24 181.664A87.944 87.944 0 1 0 224 101.496V77.064A103.92 103.92 0 0 1 152 256zM104 168C53.6 168 0 152.576 0 124V105.344C16.352 86.544 54.184 73.584 96.16 72.136A8 8 0 0 0 104 64.136V32.136A8 8 0 0 0 95.808 24.136C54.296 25.664 19.28 38.672 0 57.728V44C0 15.424 53.6 0 104 0S208 15.424 208 44V124C208 152.576 154.4 168 104 168zM104 96C50.28 96 16 112.584 16 124S50.28 152 104 152S192 135.416 192 124S157.72 96 104 96zM104 184C156 184 211.48 168.72 222.056 135.608A71.928 71.928 0 0 1 87.296 183.424C92.864 183.768 98.448 184 104 184z" />
    <glyph glyph-name="face-powder"
      unicode="&#xEA6B;"
      horiz-adv-x="256" d="M24 220A96 36 0 0 1 216 220A96 36 0 0 1 24 220M116 16.2A79.944 79.944 0 1 0 169.52 158.704A88.096 88.096 0 0 0 184 160C186.6 160 189.16 159.832 191.704 159.608A95.936 95.936 0 1 1 120 0A97.216 97.216 0 0 1 132.376 0.888A88.712 88.712 0 0 0 116 16.2zM96 72A88.112 88.112 0 0 0 149.312 152.848A63.96 63.96 0 1 1 104.8 33.888A87.408 87.408 0 0 0 96 72zM112 72A72 72 0 0 1 256 72A72 72 0 0 1 112 72" />
    <glyph glyph-name="lip-gloss"
      unicode="&#xEA6C;"
      horiz-adv-x="256" d="M144 32V8A8 8 0 0 1 152 0H216A8 8 0 0 1 224 8V32zM224 48V168A8 8 0 0 1 216 176H152A8 8 0 0 1 144 168V48zM40 0H104A8 8 0 0 1 112 8V88A8 8 0 0 1 104 96H40A8 8 0 0 1 32 88V8A8 8 0 0 1 40 0zM43 213C43 230.12 54.568 256 72 256S101 230.12 101 213A28.936 28.936 0 0 0 80 185.264V112H64V185.264A28.936 28.936 0 0 0 43 213z" />
    <glyph glyph-name="hair-straightener"
      unicode="&#xEA6D;"
      horiz-adv-x="256" d="M252.384 152.8A8 8 0 0 1 241.44 155.96L132.088 94.536A8 8 0 0 1 128 87.56V67.56L64 31.56C64 31.696 64 31.816 64 31.952A31.432 31.432 0 0 1 31.432 63.592L67.576 128H87.576A8 8 0 0 1 94.552 132.088L155.944 241.44A8 8 0 0 1 152.8 252.384A29.816 29.816 0 0 1 112.424 240.504L56 140L55.856 139.744S3.824 46.912 3.72 46.68A31.76 31.76 0 0 1 46.68 3.72C46.912 3.824 139.784 55.84 139.784 55.84L140.04 56L240.504 112.424A29.816 29.816 0 0 1 252.384 152.8zM32 20A12 12 0 1 0 44 32A12 12 0 0 0 32 20z" />
    <glyph glyph-name="travel-makeup-mirror"
      unicode="&#xEA6E;"
      horiz-adv-x="256" d="M149.656 114.344A8 8 0 0 0 138.344 125.656L178.216 165.52L178.344 165.656L196.992 184.304A79.912 79.912 0 0 1 52 119.272L106.4 173.672A8 8 0 0 0 117.712 162.36L77.792 122.48L77.656 122.344L59.008 103.696A79.912 79.912 0 0 1 204.04 168.728zM232 48H185.392A112 112 0 1 1 70.608 48H24A8 8 0 0 1 16 40V32A32 32 0 0 1 48 0H208A32 32 0 0 1 240 32V40A8 8 0 0 1 232 48zM32 144A96 96 0 1 0 128 48A96.104 96.104 0 0 0 32 144z" />
    <glyph glyph-name="mascara"
      unicode="&#xEA6F;"
      horiz-adv-x="256" d="M32 8V88A8 8 0 0 0 40 96H104A8 8 0 0 0 112 88V8A8 8 0 0 0 104 0H40A8 8 0 0 0 32 8zM96 208H80V224H88A8 8 0 0 1 88 240H80V248A8 8 0 0 1 64 248V240H56A8 8 0 0 1 56 224H64V208H48A8 8 0 0 1 48 192H64V176H56A8 8 0 0 1 56 160H64V112H80V160H88A8 8 0 0 1 88 176H80V192H96A8 8 0 0 1 96 208zM144 32V8A8 8 0 0 1 152 0H216A8 8 0 0 1 224 8V32zM224 48V168A8 8 0 0 1 216 176H152A8 8 0 0 1 144 168V48z" />
    <glyph glyph-name="lipstick-2"
      unicode="&#xEA70;"
      horiz-adv-x="256" d="M96 176H40V208A64.536 64.536 0 0 0 63 254.248A8 8 0 0 0 73 254.248A64.536 64.536 0 0 0 96 208zM240 0H152A8 8 0 0 0 144 8V128A32 32 0 0 0 176 160H216A32 32 0 0 0 248 128V8A8 8 0 0 0 240 0zM88 48H16V32A32 32 0 0 1 48 0H88A32 32 0 0 1 120 32V48zM112 112H104V152A8 8 0 0 1 96 160H40A8 8 0 0 1 32 152V112H24A8 8 0 0 1 16 104V64H120V104A8 8 0 0 1 112 112z" />
    <glyph glyph-name="makeup"
      unicode="&#xEA71;"
      horiz-adv-x="256" d="M88 104V160A8 8 0 0 1 80 168H16A8 8 0 0 1 8 160V104zM8 88H87.992A8 8 0 0 0 95.992 80V8A8 8 0 0 0 87.992 0H8A8 8 0 0 0 0 8V80A8 8 0 0 0 8 88zM248 48H201.472A111.88 111.88 0 0 1 96 245.08V227.056A95.664 95.664 0 0 0 205.944 217.28L138.344 149.656A8 8 0 0 1 149.656 138.344L217.272 205.96A95.952 95.952 0 0 0 144 48A94.72 94.72 0 0 0 112 53.736V0H232A24 24 0 0 1 256 24V40A8 8 0 0 1 248 48zM165.656 213.656A8 8 0 0 1 154.344 213.656L104 163.312V140.688L165.656 202.344A8 8 0 0 1 165.656 213.656zM72 184H24V248A8 8 0 0 0 33.944 255.76L65.944 247.76A8 8 0 0 0 72 240z" />
    <glyph glyph-name="nail-polish"
      unicode="&#xEA72;"
      horiz-adv-x="256" d="M172.648 242.4A80.88 80.88 0 0 1 112 253.992V168A8 8 0 0 0 96 168V249.112A75.68 75.68 0 0 1 83.32 242.352A7.872 7.872 0 0 1 80 235.808V152A32 32 0 0 1 112 120H144A32 32 0 0 1 176 152V235.856A7.848 7.848 0 0 1 172.648 242.4zM192 199.856V152A48 48 0 0 0 144 104H112A48 48 0 0 0 64 152V199.856A79.576 79.576 0 0 1 48 152V8A8 8 0 0 1 56 0H200A8 8 0 0 1 208 8V152A79.576 79.576 0 0 1 192 199.856zM152 24H104A8 8 0 0 0 104 40H152A8 8 0 0 0 152 24z" />
    <glyph glyph-name="hairdresser"
      unicode="&#xEA73;"
      horiz-adv-x="256" d="M106.888 116.232A44.848 44.848 0 0 1 131.28 145.776A7.664 7.664 0 0 1 131.456 146.728L143.936 247.016A8 8 0 0 1 128.368 250.4L96.368 149.376zM170.72 47.2L165.856 62.568A35.872 35.872 0 0 1 103.456 74.16L47.632 250.4A8 8 0 0 1 32.064 247L44.544 146.712A7.664 7.664 0 0 1 44.72 145.76A44.896 44.896 0 0 1 73.944 114.248L79.608 96.36L72.584 74.16A35.912 35.912 0 0 1 10.144 62.568L5.28 47.2A36.296 36.296 0 0 1 28.616 1.704A36 36 0 0 1 73.856 25.2L88 69.864L102.12 25.248A36 36 0 1 1 170.72 47.2zM63.52 45.44L58.624 30.08A20.048 20.048 0 0 0 48.664 18.224A19.592 19.592 0 0 0 33.512 16.952A20.288 20.288 0 0 0 20.528 42.4L25.4 57.768A20 20 0 0 0 35.352 69.6A19.68 19.68 0 0 0 50.552 70.864A20.256 20.256 0 0 0 63.488 45.456zM142.528 16.936A19.616 19.616 0 0 0 127.328 18.208A20.048 20.048 0 0 0 117.368 30.064L112.488 45.472A20.272 20.272 0 0 0 125.488 70.864A19.664 19.664 0 0 0 140.64 69.6A20 20 0 0 0 150.6 57.744L155.464 42.376A20.288 20.288 0 0 0 142.496 16.952zM226.184 256H176A8 8 0 0 1 176 240H216A8 8 0 0 0 216 224H176A8 8 0 0 1 176 208H216A8 8 0 0 0 216 192H176A8 8 0 0 1 176 176H216A8 8 0 0 0 216 160H176A8 8 0 0 1 176 144H216A8 8 0 0 0 216 128H176A8 8 0 0 1 176 112H196.328A16 16 0 0 0 212.168 93.744L200.08 9.136A8 8 0 0 1 208 0H248A8 8 0 0 1 256 8V226.176A29.856 29.856 0 0 1 226.184 256z" />
    <glyph glyph-name="scissors-2"
      unicode="&#xEA74;"
      horiz-adv-x="256" d="M146.888 116.232A44.848 44.848 0 0 1 171.28 145.776A7.664 7.664 0 0 1 171.456 146.728L183.936 247.016A8 8 0 0 1 168.368 250.4L136.368 149.376zM210.72 47.2L205.856 62.568A35.872 35.872 0 0 1 143.456 74.16L87.632 250.4A8 8 0 0 1 72.064 247L84.544 146.712A7.664 7.664 0 0 1 84.72 145.76A44.896 44.896 0 0 1 113.944 114.248L119.608 96.36L112.584 74.16A35.912 35.912 0 0 1 50.144 62.568L45.28 47.2A36.296 36.296 0 0 1 68.616 1.704A36 36 0 0 1 113.856 25.184L128 69.864L142.12 25.248A36 36 0 1 1 210.72 47.2zM103.52 45.44L98.656 30.064A20.048 20.048 0 0 0 88.696 18.208A19.592 19.592 0 0 0 73.544 16.936A20.288 20.288 0 0 0 60.528 42.4L65.4 57.768A20 20 0 0 0 75.352 69.6A19.68 19.68 0 0 0 90.512 70.864A20.256 20.256 0 0 0 103.488 45.456zM182.528 16.936A19.616 19.616 0 0 0 167.368 18.208A20.048 20.048 0 0 0 157.408 30.064L152.528 45.472A20.272 20.272 0 0 0 165.528 70.864A19.664 19.664 0 0 0 180.68 69.6A20 20 0 0 0 190.64 57.744L195.504 42.376A20.288 20.288 0 0 0 182.496 16.952z" />
    <glyph glyph-name="lips"
      unicode="&#xEA75;"
      horiz-adv-x="256" d="M47.576 140.8A94.088 94.088 0 0 0 72 144A80.984 80.984 0 0 0 102.808 137.496A64.504 64.504 0 0 1 128 132A64.504 64.504 0 0 1 153.192 137.496A81.024 81.024 0 0 0 184 144A126.688 126.688 0 0 0 211.888 140.592A190.304 190.304 0 0 1 250.648 136.072L198.048 177.04A60.728 60.728 0 0 1 160 192A55.632 55.632 0 0 1 135.376 186.264A16.552 16.552 0 0 0 120.624 186.264A55.632 55.632 0 0 1 96 192A60.728 60.728 0 0 1 57.952 177.04L5.336 136.064A168.864 168.864 0 0 1 47.576 140.8zM208.672 124.92A112.416 112.416 0 0 1 184 128A64.496 64.496 0 0 1 158.816 122.504A81.032 81.032 0 0 0 128 116A80.984 80.984 0 0 0 97.192 122.504A64.504 64.504 0 0 1 72 128A78.32 78.32 0 0 1 51.248 125.232A186.448 186.448 0 0 0 4.72 120.064C42.312 83.4 84.872 64 128 64S213.696 83.4 251.288 120.064A205.496 205.496 0 0 0 208.672 124.92z" />
    <glyph glyph-name="eyeshadow"
      unicode="&#xEA76;"
      horiz-adv-x="256" d="M247.328 219.2A8 8 0 0 1 241.256 223.888L99.864 246.288A119.76 119.76 0 0 1 37.136 240.424L13.192 231.496A8 8 0 1 1 18.792 216.504L42.76 225.488A102.072 102.072 0 0 0 96.36 230.704C123.08 226.008 209.16 189.2 209.16 189.2A23.704 23.704 0 0 1 217.76 187.6A24.168 24.168 0 0 1 237.824 198.264L246.696 211.568A8 8 0 0 1 247.328 219.2zM238.616 115.304C241.128 117.76 243.664 120.184 246 122.84A8 8 0 1 1 234 133.424C232.072 131.232 230 129.248 227.912 127.208A139.32 139.32 0 0 1 76.256 141.176A32.568 32.568 0 0 0 32.976 153.04L32.8 153.344A8 8 0 0 1 18.952 145.344A140.752 140.752 0 0 1 47.384 110.624L47.432 110.536C47.488 110.48 47.568 110.456 47.624 110.4C51.072 107.36 54.68 104.528 58.4 101.848A68.52 68.52 0 0 0 8 80A8 8 0 0 1 8 64A85.6 85.6 0 0 1 71.944 93.144A140.632 140.632 0 0 1 97.608 81.944A91.4 91.4 0 0 0 52.952 42.904A8 8 0 0 1 59.048 28.112A107.152 107.152 0 0 1 113.448 77.768A138.744 138.744 0 0 1 139.664 75.112C139.712 75.112 139.76 75.112 139.816 75.112H140.856A91.04 91.04 0 0 0 110.528 24.52A8 8 0 1 1 120.928 12.328A106.768 106.768 0 0 1 157.272 76.184A139.864 139.864 0 0 1 187.072 83.184A87.496 87.496 0 0 0 180.8 37.2A8 8 0 0 1 185.112 26.752A7.888 7.888 0 0 1 188.184 26.136A8 8 0 0 1 195.576 31.064A101.664 101.664 0 0 1 202.16 89.52A140.44 140.44 0 0 1 226.0320000000001 104.304A89.872 89.872 0 0 0 230.7440000000001 56.992A8 8 0 0 1 237.296 47.768A8.624 8.624 0 0 1 238.64 47.656A8 8 0 0 1 246.52 54.32A104.8 104.8 0 0 1 238.632 115.304z" />
    <glyph glyph-name="makeup-mirror"
      unicode="&#xEA77;"
      horiz-adv-x="256" d="M240 144A112 112 0 1 1 120 32.408V16H72A8 8 0 0 1 72 0H184A8 8 0 0 1 184 16H136V32.408A112.056 112.056 0 0 1 240 144zM32 144A96 96 0 1 0 128 48A96.104 96.104 0 0 0 32 144zM201.912 174.6L125.656 98.344A8 8 0 0 0 114.344 109.656L193.944 189.256A80 80 0 0 1 54.088 113.4L130.344 189.656A8 8 0 0 0 141.656 178.344L62.056 98.744A80 80 0 0 1 201.912 174.6z" />
    <glyph glyph-name="comb"
      unicode="&#xEA78;"
      horiz-adv-x="256" d="M253.656 189.656L196.688 246.624A32.8 32.8 0 0 1 151.432 246.624L9.376 104.568A32 32 0 0 1 9.376 59.312L66.344 2.344A8 8 0 0 1 77.656 13.656L34.344 56.968L48.176 70.8L91.488 27.488A8 8 0 1 1 102.8 38.8L59.488 82.112L73.32 95.944L116.632 52.632A8 8 0 0 1 127.944 63.944L84.632 107.256L98.456 121.088L141.776 77.776A8 8 0 0 1 153.088 89.088L109.768 132.4L123.6 146.232L166.912 102.912A8 8 0 0 1 178.224 114.224L134.912 157.544L148.744 171.376L192.056 128.056A8 8 0 0 1 203.368 139.368L160.056 182.688L173.888 196.52L217.2 153.2A8 8 0 1 1 228.512 164.512L185.2 207.832L198.624 221.256C198.768 221.4 198.816 221.592 198.944 221.744L242.344 178.344A8 8 0 0 1 253.656 189.656z" />
    <glyph glyph-name="perfume"
      unicode="&#xEA79;"
      horiz-adv-x="256" d="M120 210.88V186.936A103.2 103.2 0 0 0 184 186.888V208H208A8 8 0 0 1 216 216V232A8 8 0 0 1 208 240H184V248A8 8 0 0 1 176 256H128A8 8 0 0 1 120 248V227.544A136.44 136.44 0 0 1 66.888 200.512A40 40 0 0 1 29.656 209.528A40 40 0 0 1 20 136.248L26.928 132.248H26.928L27.296 132.048H27.296L27.296 132.048H27.416A8.048 8.048 0 0 1 30.872 131.248A7.808 7.808 0 0 1 32 131.248H32A8 8 0 0 1 37.848 135.176L49.848 155.976A119.936 119.936 0 0 0 120 210.88zM151.928 176A88 88 0 1 1 239.928 88A88.104 88.104 0 0 1 151.928 176zM151.928 160A72.08 72.08 0 0 0 223.456 96H80.4A72.088 72.088 0 0 0 151.928 160z" />
    <glyph glyph-name="makeup-palette"
      unicode="&#xEA7A;"
      horiz-adv-x="256" d="M224 176H32A32 32 0 0 0 2.048 219.2H2.048L13.888 250.808A8 8 0 0 0 21.376 256H234.616A8 8 0 0 0 242.112 250.816L253.9520000000001 219.248A32 32 0 0 0 224 176zM9.544 216.432H9.544zM206.872 160A32 32 0 1 0 145.128 160H110.872A32 32 0 1 0 49.128 160H16V32A32 32 0 0 1 48 0H208A32 32 0 0 1 240 32V160zM80 32A32 32 0 1 0 112 64A32 32 0 0 0 80 32zM176 32A32 32 0 1 0 208 64A32 32 0 0 0 176 32z" />
    <glyph glyph-name="hacker"
      unicode="&#xEA7B;"
      horiz-adv-x="256" d="M249.336 75.2L234.936 113.68A40 40 0 0 1 220.8 132.168L193.064 152A93.992 93.992 0 0 1 200 184C200 212.256 156.264 256 128 256S56 212.256 56 184A93.992 93.992 0 0 1 62.936 152L35.2 132.168A40 40 0 0 1 21.064 113.712L6.664 75.2A39.792 39.792 0 0 1 12.112 37.16L25.6 19.2A8 8 0 0 1 32 16H40V96A24 24 0 0 0 64 120H106.144A61.28 61.28 0 0 0 80 168A8 8 0 0 0 83.88 174.856L107.416 188.984A39.912 39.912 0 0 0 148.584 188.984L172.12 174.856A8 8 0 0 0 176 168A61.28 61.28 0 0 0 149.856 120H192A24 24 0 0 0 216 96V16H224A8 8 0 0 1 230.4 19.2L243.888 37.176A39.848 39.848 0 0 1 249.336 75.2zM197.656 101.656A8 8 0 0 1 192 104H64A8 8 0 0 1 56 96V8A8 8 0 0 1 64 0H192A8 8 0 0 1 200 8V96A8 8 0 0 1 197.656 101.656zM128 32A20 20 0 1 0 148 52A20 20 0 0 0 128 32z" />
    <glyph glyph-name="floor"
      unicode="&#xEA7C;"
      horiz-adv-x="256" d="M148 224.688L63.576 140.264L96.04 107.352L180.688 192L148 224.688zM51.312 216L84 183.312L156.688 256L91.312 256L51.312 216zM244.688 256L179.312 256L159.312 236L192 203.312L244.688 256zM40 204.688L0 164.688L0 99.312L72.688 172L40 204.688zM216 51.312L256 91.312L256 156.688L183.312 84L216 51.312zM75.3118283717303 63.9976808713635L160.0005933408808 148.6864458405139L192.6858971944477 116.0011419869469L107.9971322252973 31.3123770177965L75.3118283717303 63.9976808713635zM68.688 256H8A8 8 0 0 1 0 248V187.312zM187.312 0H248A8 8 0 0 1 256 8V68.688zM171.312 160L204 127.312L256 179.312L256 244.688L171.312 160zM84.728 96.04L52.264 128.944L0 76.688L0 11.312L84.728 96.04zM96.688 20L64 52.688L11.312 0L76.688 0L96.688 20zM204.688 40L172 72.688L99.312 0L164.688 0L204.688 40z" />
    <glyph glyph-name="night-table"
      unicode="&#xEA7D;"
      horiz-adv-x="256" d="M191.592 178.528L167.592 250.528A8 8 0 0 1 160 256H96A8 8 0 0 1 88.408 250.528L64.408 178.528A8 8 0 0 1 72 168H120V136H136V168H184A8 8 0 0 1 191.592 178.528zM248 120H8A8 8 0 0 1 0 112V32A8 8 0 0 1 8 24H24V8A8 8 0 0 1 40 8V24H216V8A8 8 0 0 1 232 8V24H248A8 8 0 0 1 256 32V112A8 8 0 0 1 248 120zM152 64H104A8 8 0 0 0 104 80H152A8 8 0 0 0 152 64z" />
    <glyph glyph-name="window"
      unicode="&#xEA7E;"
      horiz-adv-x="256" d="M202.44 224.472A7.584 7.584 0 0 1 201.64 225.656A7.584 7.584 0 0 1 200.456 226.456A103.72 103.72 0 0 1 54.608 225.656C54.56 225.608 54.504 225.6 54.464 225.552S54.408 225.456 54.36 225.408A103.672 103.672 0 0 1 24 152V8A8 8 0 0 1 32 0H224A8 8 0 0 1 232 8V152A103.584 103.584 0 0 1 202.44 224.472zM40 144H120V88H40zM60.416 208.272L108.688 160H40.408A87.568 87.568 0 0 0 60.416 208.272zM215.592 160H147.312L195.584 208.272A87.568 87.568 0 0 0 215.592 160zM136 171.312V239.592A87.568 87.568 0 0 0 184.272 219.592zM120 171.312L71.728 219.584A87.568 87.568 0 0 0 120 239.592zM136 144H216V88H136zM40 72H120V16H40zM136 16V72H216V16zM56 128H104V104H56V128zM152 128H200V104H152V128zM56 56H104V32H56V56zM152 56H200V32H152V56z" />
    <glyph glyph-name="door-handle"
      unicode="&#xEA7F;"
      horiz-adv-x="256" d="M248 160H56A24 24 0 0 0 32 184H32A24 24 0 0 0 56 208H248A8 8 0 0 0 256 200V168A8 8 0 0 0 248 160zM56 224H112V240A16 16 0 0 1 96 256H16A16 16 0 0 1 0 240V16A16 16 0 0 1 16 0H96A16 16 0 0 1 112 16V144H56A40 40 0 0 0 56 224zM56 96A20 20 0 0 0 64 57.688V40A8 8 0 0 0 48 40V57.688A20 20 0 0 0 56 96z" />
    <glyph glyph-name="storage-shelves"
      unicode="&#xEA80;"
      horiz-adv-x="256" d="M120 224H64A8 8 0 0 1 56 216V168H128V216A8 8 0 0 1 120 224zM64 104H104A8 8 0 0 0 112 96V64ANaN NaN NaN 0 0 112 64H56ANaN NaN NaN 0 0 56 64V96A8 8 0 0 0 64 104zM152 208H192A8 8 0 0 0 200 200V168ANaN NaN NaN 0 0 200 168H144ANaN NaN NaN 0 0 144 168V200A8 8 0 0 0 152 208zM232 256H24A8 8 0 0 1 16 248V8A8 8 0 0 1 32 8V32H224V8A8 8 0 0 1 240 8V248A8 8 0 0 1 232 256zM224 240V152H32V240zM32 48V136H224V48zM192 120H136A8 8 0 0 1 128 112V64H200V112A8 8 0 0 1 192 120z" />
    <glyph glyph-name="light-switch"
      unicode="&#xEA81;"
      horiz-adv-x="256" d="M232 248H24A16 16 0 0 1 8 232V24A16 16 0 0 1 24 8H232A16 16 0 0 1 248 24V232A16 16 0 0 1 232 248zM128 228A12 12 0 1 0 116 216A12 12 0 0 0 128 228zM64 80V176A8 8 0 0 0 72 184H120V72H72A8 8 0 0 0 64 80zM128 28A12 12 0 1 0 140 40A12 12 0 0 0 128 28zM192 80A8 8 0 0 0 184 72H136V184H184A8 8 0 0 0 192 176zM80 120H104V88H80V120zM152 120H176V88H152V120z" />
    <glyph glyph-name="fireplace"
      unicode="&#xEA82;"
      horiz-adv-x="256" d="M40 80V104A88 88 0 0 0 216 104V80H256V232A8 8 0 0 1 248 240H8A8 8 0 0 1 0 232V80zM120.112 160A46.24 46.24 0 0 0 108.44 130.32C97.744 119.64 88 109.2 88 92.912A40.872 40.872 0 0 1 110.984 56C110.984 56.64 110.856 57.264 110.856 57.912C110.856 75.416 122.288 69.584 128 88.192A35.08 35.08 0 0 0 145.144 57.912C145.144 57.264 145.048 56.64 145.016 56A40.872 40.872 0 0 1 168 92.912C168 111.416 159.904 140.952 120.112 160zM216 64V48A8 8 0 0 0 208 40H48A8 8 0 0 0 40 48V64H0V24A8 8 0 0 1 8 16H248A8 8 0 0 1 256 24V64z" />
    <glyph glyph-name="chandelier"
      unicode="&#xEA83;"
      horiz-adv-x="256" d="M224 56A32 32 0 1 0 256 88A32 32 0 0 0 224 56zM208 256H48A8 8 0 0 1 48 240H70.088A62.456 62.456 0 0 1 128 200A62.456 62.456 0 0 1 185.912 240H208A8 8 0 0 1 208 256zM32 56A32 32 0 1 0 64 88A32 32 0 0 0 32 56zM224 40A47.44 47.44 0 0 0 213.112 41.296A39.872 39.872 0 0 0 138.888 41.296A46.4 46.4 0 0 0 117.112 41.296A39.872 39.872 0 0 0 42.888 41.296A47.44 47.44 0 0 0 32 40A48.408 48.408 0 0 0 26.264 40.376A56 56 0 0 1 128 27.2A56 56 0 0 1 229.736 40.4A48.408 48.408 0 0 0 224 40zM128 56A32 32 0 1 0 160 88A32 32 0 0 0 128 56zM128 136A48 48 0 0 0 136 135.28V184.552A75.888 75.888 0 0 0 128 184A75.888 75.888 0 0 0 120 184.552V135.28A48 48 0 0 0 128 136z" />
    <glyph glyph-name="bureau-dresser"
      unicode="&#xEA84;"
      horiz-adv-x="256" d="M141.656 154.344A8 8 0 0 0 130.344 165.656L170.216 205.52L188.152 223.464A71.952 71.952 0 0 1 56 184V155.312L106.344 205.656A8 8 0 1 0 117.656 194.344L56 132.688V120H200V184A71.464 71.464 0 0 1 195.672 208.352zM240 104H16A8 8 0 0 1 8 96V8A8 8 0 0 1 16 0H240A8 8 0 0 1 248 8V96A8 8 0 0 1 240 104zM128 40A12 12 0 1 0 140 52A12 12 0 0 0 128 40z" />
    <glyph glyph-name="dresser-2"
      unicode="&#xEA85;"
      horiz-adv-x="256" d="M224 64V128H32V64zM128 108A12 12 0 1 0 116 96A12 12 0 0 0 128 108zM224 240H32A32 32 0 0 1 0 208V64A32 32 0 0 1 32 32H40V24A8 8 0 0 1 56 24V32H200V24A8 8 0 0 1 216 24V32H224A32 32 0 0 1 256 64V208A32 32 0 0 1 224 240zM240 64A16 16 0 0 0 224 48H32A16 16 0 0 0 16 64V208A16 16 0 0 0 32 224H224A16 16 0 0 0 240 208zM32 208V144H120V208zM76 164A12 12 0 1 0 88 176A12 12 0 0 0 76 164zM136 208V144H224V208zM180 164A12 12 0 1 0 192 176A12 12 0 0 0 180 164z" />
    <glyph glyph-name="dresser-3"
      unicode="&#xEA86;"
      horiz-adv-x="256" d="M0 48V40A8 8 0 0 1 8 32H24V24A8 8 0 0 1 40 24V32H216V24A8 8 0 0 1 232 24V32H248A8 8 0 0 1 256 40V48zM248 240H8A8 8 0 0 1 0 232V160H256V232A8 8 0 0 1 248 240zM152 200H104A8 8 0 0 0 104 216H152A8 8 0 0 0 152 200zM0 144V64H256V144zM152 104H104A8 8 0 0 0 104 120H152A8 8 0 0 0 152 104z" />
    <glyph glyph-name="wardrobe-4"
      unicode="&#xEA87;"
      horiz-adv-x="256" d="M24 64V8A8 8 0 0 1 32 0H120V64zM80 32H64A8 8 0 0 0 64 48H80A8 8 0 0 0 80 32zM24 144V80H120V144zM80 112H64A8 8 0 0 0 64 128H80A8 8 0 0 0 80 112zM224 256H136V0H224A8 8 0 0 1 232 8V248A8 8 0 0 1 224 256zM168 104A8 8 0 0 0 152 104V120A8 8 0 0 0 168 120zM32 256A8 8 0 0 1 24 248V160H120V256zM104 200A8 8 0 0 0 88 200V216A8 8 0 0 0 104 216z" />
    <glyph glyph-name="weight-gain"
      unicode="&#xEA88;"
      horiz-adv-x="256" d="M192 176A212.112 212.112 0 0 0 201.88 237.6A8 8 0 0 1 186.608 242.4H186.608A227.848 227.848 0 0 1 176 176A122.032 122.032 0 0 1 184.32 134.024A322.472 322.472 0 0 0 128 128A324 324 0 0 0 71.68 134.032A122.024 122.024 0 0 1 80 176A227.848 227.848 0 0 1 69.392 242.4A8 8 0 0 1 54.12 237.6H54.12A212.112 212.112 0 0 0 64 176A112.392 112.392 0 0 0 55.888 137.224C47.688 113.112 37.488 83.096 48.096 14.776A8 8 0 0 1 63.904 17.224A285.448 285.448 0 0 0 60.144 83.992C88.2 79.816 113.352 52.792 120 45.088V16A8 8 0 0 1 136 16V45.088C142.656 52.768 167.808 79.776 195.864 83.952A286.4 286.4 0 0 0 192.096 17.224A8 8 0 1 1 207.856 14.44L207.904 14.776C218.52 83.096 208.312 113.112 200.112 137.224A112.392 112.392 0 0 0 192 176zM120 160A8 8 0 0 1 136 160A8 8 0 0 1 120 160M33.6 148.8A4 4 0 0 1 40 152V200A4 4 0 0 1 36 204A4.048 4.048 0 0 1 33.6 203.2L1.6 179.2A4 4 0 0 1 1.6 172.8zM218.208 148.408A4.08 4.08 0 0 1 222.4 148.8L254.4 172.8A4 4 0 0 1 254.4 179.2L222.4 203.2A4 4 0 0 1 220 204A4.064 4.064 0 0 1 218.208 203.576A4 4 0 0 1 216 200V152A4 4 0 0 1 218.208 148.408z" />
    </font>
</defs>
</svg>
